<?xml version="1.0" standalone="no"?>
<!DOCTYPE svg PUBLIC "-//W3C//DTD SVG 1.1//EN" "http://www.w3.org/Graphics/SVG/1.1/DTD/svg11.dtd" >
<svg xmlns="http://www.w3.org/2000/svg" xmlns:xlink="http://www.w3.org/1999/xlink" version="1.1">
<metadata>
Created by FontForge 20170924 at Mon Oct  7 08:39:25 2019
 By www-data
Joannavu
</metadata>
<defs>
<font id="skullsandcrossbones" horiz-adv-x="744" >
  <font-face 
    font-family="skullsandcrossbones"
    font-weight="500"
    font-stretch="normal"
    units-per-em="1000"
    panose-1="2 0 6 3 0 0 0 0 0 0"
    ascent="800"
    descent="-200"
    x-height="499"
    cap-height="721"
    bbox="-1017 -508.588 1631.82 867.853"
    underline-thickness="50"
    underline-position="-150"
    unicode-range="U+0020-F8FE"
  />
<missing-glyph horiz-adv-x="364" 
d="M66 33h199v600h-199v-600zM33 0v666h265v-666h-265z" />
    <glyph glyph-name=".notdef" horiz-adv-x="364" 
d="M66 33h199v600h-199v-600zM33 0v666h265v-666h-265z" />
    <glyph glyph-name=".null" horiz-adv-x="0" 
 />
    <glyph glyph-name="nonmarkingreturn" horiz-adv-x="333" 
 />
    <glyph glyph-name="space" unicode=" " horiz-adv-x="300" 
 />
    <glyph glyph-name="exclam" unicode="!" horiz-adv-x="301" 
d="M134 -51q-5 -20 8 -29q7 28 24 36q19 10 38 -6q18 -17 12 -37q-8 -24 -46 -31q-25 -4 -41 11.5t-14.5 39t22.5 38.5q5 4 9 -1t-2 -9q-6 -5 -10 -11v-1zM172 56q2 0 3 -1q11 -3 17 -5q8 -4 12 -9q0 -1 1 -2q1 -2 1 -4v-1q2 -9 1 -17v-2q-2 -6 -7 -5h-2q-16 2 -30 7
q1 -3 4 -6q4 -3 16 -7h1q11 -3 17 -7h1l2 -4q6 -18 -6 -26q-8 -6 -25 -3q-31 5 -43 26q-1 2 -1 3q-7 24 -8 54q-1 19 2 30q4 15 16 15q19 1 34 -3q25 -8 24 -29q0 -3 -3 -5t-6 -1q-7 2 -20 2h-1zM75 128q12 -4 43 1q14 2 25 10t15 14l5 7q1 -2 4 -5.5t19 -9.5t40 -8
q28 -1 49 -24t6 -41q-21 -22 -42 -8q-19 13 -8 32q1 1 2 3q5 6 -16 8q-54 6 -111 -11q-49 -14 -73 17q-16 21 -3 36q4 4 9 6q35 5 36 -27zM112 174q-2 231 3.5 351.5t15.5 169t33 103.5q1 2 3.5 -2.5t6 -16t8 -29.5t9 -46.5t8 -64t6 -84.5t3 -105t-1 -129.5t-6.5 -154.5
q-1 1 -7.5 -0.5t-13.5 4.5t-8 19q0 65 1 179.5t-0.5 164.5t-8.5 55q-5 3 -8 -23q-4 -41 1 -369v-5q0 -30 -41 -18z" />
    <glyph glyph-name="quotedbl" unicode="&#x22;" horiz-adv-x="410" 
d="M236 519l71 95h88q-38 -56 -79 -84q-18 -13 -38.5 -15.5t-31.5 1.5zM53 517l71 94h88q-38 -56 -79 -84q-18 -12 -38 -14.5t-31 0.5z" />
    <glyph glyph-name="dollar" unicode="$" horiz-adv-x="435" 
d="M172 508q-1 51 -5 69q-5 4 -9 5q-4 -13 -5 -56q8 -9 19 -18zM142 -80q4 17 12 27q-10 -1 -21 -3q-3 -16 9 -24zM173 56q1 0 2 -1q11 -3 17 -5q7 -3 11 -8q20 9 39 20q-10 6 -13 16.5t4 20.5q5 6 -16 8q-54 6 -111 -11q-49 -14 -73 17q-16 21 -3 36q4 4 9 6q35 5 36 -27
q12 -4 43 1q14 2 25 10t15 14l5 7q1 -2 4 -5.5t19 -9.5t40 -8q18 -1 35.5 -12.5t23.5 -26.5q16 22 20 50.5t-4.5 58.5t-31.5 61t-59 56q-1 1 -3 2q-2 -76 -7 -160q-1 1 -7.5 -0.5t-13.5 4.5t-8 19v162q-9 8 -18 15q1 -28 2 -86.5t1 -88.5t-41 -18l-3 1q-1 135 0 227
q-107 102 -32 190q17 20 41 34q6 59 15.5 95t27.5 78q1 2 3.5 -2t6 -15t7.5 -27.5t8.5 -43.5t7.5 -59l36 2q9 -18 29 -27.5t41 -11t40.5 0t32.5 4.5l12 2q-1 -3 -3.5 -8.5t-13.5 -19.5t-25 -24t-39.5 -18t-56.5 -7q-22 1 -45 12q1 -37 2 -77q22 -16 51 -34
q51 -32 93.5 -75.5t57.5 -85.5q23 -58 4.5 -130t-76.5 -124q-58 -53 -142 -74q5 -3 9 -6q18 -17 12 -37q-8 -24 -46 -31q-28 -5 -44 15.5t-9 45.5q-72 -6 -141 8q-53 10 -95.5 44t-62.5 91q-14 46 -5.5 91t30.5 72q80 100 207 96q-4 0 -11.5 -2t-29 -9.5t-40 -18t-40.5 -30
t-35 -43.5q-41 -71 -11 -133q26 -55 95 -80t151 -10q-3 16 -3 28q-1 19 2 30q4 15 16 15q19 1 34 -3q25 -8 24 -29q0 -3 -3 -5t-6 -1q-7 2 -20 2z" />
    <glyph glyph-name="percent" unicode="%" horiz-adv-x="964" 
d="M211 431q0 15 -20 44q-19 -26 -20 -41v-2q11 -3 37 -1h3zM94 500l2 -4q3 -14 15 -20.5t27.5 -3t23.5 13.5q9 10 6 25q-3 13 -14.5 19.5t-27 4t-25.5 -11.5q-8 -9 -7 -21v-2zM210 511q1 -4 2 -7q8 -24 27 -30q11 -3 23 -2t16 5q16 17 9 32t-28 23t-35 0q-12 -6 -14 -21z
M608 -17q1 15 -20 44q-19 -25 -20 -41v-2q11 -3 37 -1h3zM491 52l2 -4q3 -14 15 -20t27.5 -3t23.5 13q9 11 6 25t-14.5 20t-27 4t-25.5 -12q-8 -8 -7 -20v-3zM608 63q0 -3 1 -7q8 -24 28 -30q10 -3 22.5 -2t15.5 5q16 17 9 32t-28 23t-35 1q-11 -6 -13 -22zM425 331
q-75 -143 -183 -287q-75 -99 -169.5 -160t-173.5 -50q-38 5 -55 25.5t-11 42.5q3 11 12.5 20.5t17.5 13.5l8 4q-7 -63 51 -62q65 2 157 75q74 59 119 133q43 72 80 135q8 14 73 137t101 185q45 77 80 122q78 100 174.5 158t175.5 41q39 -9 55.5 -32t10.5 -45
q-4 -11 -13.5 -20.5t-17.5 -13.5l-8 -4q8 66 -52 71q-64 6 -152 -57q-85 -61 -129 -146q-16 -29 -50.5 -97t-57 -110.5t-43.5 -78.5zM305 151v-4q13 10 12 11zM191 710q92 -3 131 -66t0 -144q0 -1 -1 -2q-2 -7 0 -20q1 -6 2 -9q1 -13 -3 -24q-6 -15 -22 -21q-8 -2 -23 -2h-1
q-14 0 -16 -3q-6 -5 -3 -17q2 -9 3 -13q0 -12 -9 -20q-12 -11 -55 -12q-17 -1 -26 0q-17 2 -29 10q-13 8 -15 21q-1 6 2 18v1q1 6 0 7q-3 3 -16 4h-2q-11 1 -17 3q-11 3 -18 11q-6 7 -8 20q-2 6 -3 20q0 6 -1 8q-1 15 -3 22q-1 0 -1 1q-1 2 -1 4h-1q-1 2 -1 4q-27 72 4 127
q35 62 126 72h3q2 1 4 0zM588 263q92 -3 131 -66.5t0 -144.5v-1q-3 -7 -1 -21q2 -6 2 -9q1 -13 -3 -24q-6 -15 -22 -20q-8 -3 -23 -3h-1q-14 0 -16 -2q-6 -6 -3 -17q3 -9 3 -14q0 -12 -8 -20q-13 -11 -56 -12q-17 -1 -26 1q-17 1 -29 9t-15 21q-1 7 2 18v1q1 6 0 7
q-3 3 -16 4q-1 0 -2 1q-11 1 -17 2q-11 3 -18 11q-6 7 -8 20q-2 6 -3 20q0 6 -1 9q-1 14 -3 21l-1 1q-1 2 -1 4h-1q-1 2 -1 5q-27 72 4 127q35 61 126 71h3q2 1 4 1zM188 681q1 0 2 1h-1z" />
    <glyph glyph-name="quotesingle" unicode="'" horiz-adv-x="267" 
d="M69 498l82 140h101q-43 -83 -91 -125q-13 -12 -27.5 -17.5t-25 -6t-21 1.5t-13.5 3.5t-5 3.5z" />
    <glyph glyph-name="parenleft" unicode="(" horiz-adv-x="363" 
d="M258 -229q-6 28 6 43q14 17 38 9t26 -29q2 -25 -30 -47q-21 -14 -42.5 -5.5t-28 29.5t4.5 45q3 5 8.5 2t2.5 -9q-4 -6 -5 -14q4 -21 20 -24zM147 -1q-39 89 -55.5 175.5t-11 157.5t25 135.5t49.5 112t64 83.5t67.5 54.5t61.5 20.5q1 0 -12.5 -13.5t-36 -43.5t-46.5 -71
t-42 -103.5t-25 -133.5t7.5 -167t53.5 -199q-2 1 -9.5 -0.5t-21.5 7.5t-23 27q-20 41 -32.5 85t-16 81t-4 74t3.5 63.5t6 50t4 32.5t-2 12q-7 1 -13.5 -23t-9.5 -66.5t-1 -92.5t15.5 -111t37.5 -113q12 -26 -29 -33zM289 -135q13 -14 6 -27q-6 -9 -22 -13q-31 -7 -50 8
q-2 0 -3 1q-15 19 -28 47q-9 17 -10 28q-3 15 8 20q17 9 33 11q25 3 33 -17q1 -3 -1 -6q-1 -3 -5 -3q-7 -1 -17 -5l-3 -1l-1 -1q1 0 3 1h2q11 2 17 2q9 0 14 -3l2 -2h1q1 -1 2 -3t3 -5q4 -7 5 -13t-4 -8h-1q-16 -5 -31 -6q5 -5 22 -4q1 1 2 1q13 1 18 0h2q2 0 3 -2zM112 -32
q14 -4 46 3q14 3 25.5 11.5t15.5 15.5l4 7q1 -2 4.5 -5.5t21 -8.5t42.5 -5q30 0 53 -21.5t8 -39.5q-21 -24 -43 -11q-20 11 -11 30l2 4q4 6 -15 7q-53 4 -114 -16q-2 0 -3 -1q-52 -18 -79 13q-17 20 -4 35q3 4 8 6q22 7 29.5 1t9 -15.5t0.5 -9.5z" />
    <glyph glyph-name="parenright" unicode=")" horiz-adv-x="386" 
d="M179 726q5 -29 -7 -43q-15 -17 -38 -9q-24 9 -25 30q-2 25 31 46q21 13 42 4t27 -30t-5 -44q-3 -6 -9 -2.5t-2 8.5q4 7 5 14v1q-3 21 -19 25zM-852 96q-15 -13 -26 -21q-2 -2 -4.5 -3.5t-4.5 -3.5t-3 -2q-3 -2 -11 -18q-2 -6 -7.5 -3t-2.5 8q0 1 2 4.5t2 4.5l3 6q3 4 7 8
l5 4q5 3 7 4q11 8 25 21q5 4 8.5 -0.5t-0.5 -8.5zM284 494q65 -163 60.5 -297t-54 -230.5t-112 -150.5t-113.5 -55q-1 0 12.5 13t37 42t48.5 70t44.5 102.5t28 132.5t-3.5 167.5t-48 200.5q1 0 4 0.5t9.5 -1.5t13 -4.5t13.5 -10.5t13 -20q19 -41 30.5 -85.5t14 -81.5t2 -74
t-5 -63.5t-7.5 -49.5t-5 -32t2 -12q7 -1 14.5 22.5t11.5 66t3 92.5t-13 111.5t-35 114.5q-5 13 3.5 21t20.5 9zM145 632q-12 15 -5 27q6 9 23 12q31 7 50 -8l2 -2q15 -20 28 -47q8 -18 9 -29q2 -15 -9 -19q-18 -9 -33 -11q-26 -2 -33 18q-1 3 1 6t5 3q7 1 18 5q2 1 4 1h-3
h-2q-11 -2 -18 -2q-8 1 -13 4q-1 0 -2 1q-1 0 -1 1l-2 2q-2 3 -3 5q-4 7 -5 14q-1 6 4 7q1 0 2 1q16 4 31 5q-6 5 -23 4h-2q-12 -1 -18 0h-1q-2 0 -4 2zM-952 65q-16 -14 -28 -23q-2 -1 -4.5 -3.5t-5.5 -4.5l-2 -1q-4 -3 -12 -20q-3 -6 -9 -3t-3 9q1 1 3 5l2 4l3 6q3 5 8 9
l5 4q5 4 7 5q12 9 28 23q5 4 9 -1t-1 -9zM320 525q-14 3 -46 -3q-15 -2 -26 -10t-16 -15l-4 -7q-1 2 -4.5 5.5t-20.5 9t-42 5.5q-30 1 -53 23.5t-7 40.5q22 24 45 8q18 -12 8 -30l-2 -4q-4 -5 16 -7q57 -4 117 14q53 17 79 -15q17 -21 2 -35q-3 -4 -8 -5q-21 -6 -29.5 -0.5
t-8.5 15.5v10z" />
    <glyph glyph-name="plus" unicode="+" horiz-adv-x="631" 
d="M263 216q-33 -1 -100 -7q-27 -2 -43.5 -8.5t-22 -12t-14 -20t-13.5 -20.5q-6 -9 -17.5 -12t-26 5t-23.5 31q-5 23 -3 33t9.5 23.5t8.5 20.5q1 9 -8 30t-8 40q1 29 19 40.5t45 -3.5q13 -8 25 -24t25.5 -26t36.5 -12q47 -2 110 -2q0 76 -4 136q-2 24 -13.5 39.5t-24 22
t-21.5 20t-6 34.5q3 19 35 28.5t57 -7.5q15 -10 27.5 -7.5t21 10.5t25 8.5t39.5 -13.5q18 -12 18 -28.5t-16 -33.5q-5 -4 -21.5 -18.5t-25 -26.5t-10.5 -28q-7 -60 -7 -135q71 1 129 6q24 2 39.5 14t21.5 24.5t19.5 21.5t34.5 7q19 -2 29 -34t-6 -57q-11 -16 -8 -28
t11 -20.5t9 -25t-12 -39.5q-13 -19 -29 -19t-33 16q-5 4 -19.5 20.5t-26.5 25t-28 9.5q-58 6 -130 5q1 -31 5 -95q2 -28 8 -44.5t11.5 -22t20 -14t20.5 -14.5q8 -6 11.5 -17.5t-5 -25.5t-32.5 -23q-22 -5 -32 -3t-23.5 10t-20.5 9q-9 1 -30 -7.5t-40 -7.5q-29 2 -40.5 20
t4.5 45q7 11 18.5 21t20.5 16t16 18.5t8 30.5q3 43 5 101z" />
    <glyph glyph-name="comma" unicode="," horiz-adv-x="270" 
d="M-15 -110l122 160h148q-7 -10 -19.5 -27.5t-47.5 -55.5t-66 -59q-20 -14 -41.5 -20.5t-37 -7t-30.5 2.5t-20 4.5t-8 2.5z" />
    <glyph glyph-name="hyphen" unicode="-" horiz-adv-x="631" 
d="M153 294q160 -8 313 5q24 2 39.5 14t21.5 24.5t19.5 21.5t34.5 7q19 -2 29 -34t-6 -57q-11 -16 -8 -28t11 -20.5t9 -25t-12 -39.5q-13 -19 -29 -19t-33 16q-5 4 -19.5 20.5t-26.5 25t-28 9.5q-105 11 -305 -5q-27 -2 -43.5 -8.5t-22 -12t-14 -20t-13.5 -20.5
q-6 -9 -17.5 -12t-26 5t-23.5 31q-5 23 -3 33t9.5 23.5t8.5 20.5q1 9 -8 30t-8 40q1 29 19 40.5t45 -3.5q13 -8 25 -24t25.5 -26t36.5 -12z" />
    <glyph glyph-name="period" unicode="." horiz-adv-x="264" 
d="M158 -16q1 10 -14 30v1q-13 -18 -14 -29v-2q8 -2 26 0h2zM76 32q1 -1 1 -3q2 -9 10.5 -13.5t19.5 -2.5t17 9.5t4 17.5q-4 20 -29 17q-11 -2 -17.5 -8.5t-5.5 -14.5v-2zM158 40q0 -3 1 -5q5 -17 19 -21q7 -2 16 -1.5t12 3.5q10 12 5.5 22.5t-19 16t-25.5 0.5q-8 -4 -9 -15
zM144 180q65 -2 92.5 -46.5t-0.5 -101.5v-1q-2 -5 0 -14q1 -4 1 -7q1 -9 -2 -16q-5 -11 -16 -15q-5 -2 -16 -2q-10 0 -12 -2q-4 -3 -2 -11q2 -7 2 -10q0 -9 -6 -14q-8 -8 -39 -9q-12 0 -18 1q-12 1 -21 7q-8 5 -10 14q0 5 1 13v1q1 4 0 5q-2 2 -11 3h-1q-8 1 -12 2
q-8 2 -13 7q-4 5 -6 14q-1 5 -2 15v6q-1 10 -3 15q-1 2 -1 3q-1 2 -1 3q-19 51 3 90q24 43 88 50h2h3z" />
    <glyph glyph-name="slash" unicode="/" horiz-adv-x="341" 
d="M20 44q-11 -18 -2 -31q16 25 35 28q22 3 34 -19q13 -22 0 -40q-15 -20 -54 -14q-25 3 -35.5 23.5t-1 42.5t33.5 30q6 2 8 -4t-4 -8q-8 -3 -13 -7zM107 62q0 -19 -14 -24q-11 -3 -26 5q-28 16 -33 40v3q1 25 10 55q5 18 12 27q8 13 19 10q20 -5 32 -14q22 -15 14 -36
q-1 -3 -5 -3q-3 -2 -5 0q-2 1 -3 2q-5 3 -17 8v-1h1l1 -1q10 -7 15 -11q7 -6 9 -12v-2t1 -1q0 -2 -1 -4v-2q-1 -6 -3 -11q-1 -4 -3 -6q-3 -5 -8 -3q-1 0 -1 1q-15 7 -28 16q1 -4 3 -7q3 -4 13 -12h1q10 -7 13 -12q1 0 1 -1q2 -2 2 -4zM21 235q11 -8 42 -13q7 -1 13 -1
t11.5 1.5t9.5 3t7.5 4t6 4t3.5 2.5l2 1q0 -2 2 -6.5t15.5 -15.5t36.5 -20q26 -10 38.5 -39t-7.5 -41q-27 -15 -43 5q-13 18 2 33q1 2 4 3q6 4 -13 13q-50 23 -110 25q-51 2 -65 38q-9 26 8 37q5 3 11 3q20 0 26 -9t3.5 -18.5t-3.5 -9.5zM71 267q73 223 117 337t69 157.5
t66 89.5l3 -7q7 -62 -43 -243q-45 -160 -130 -370q-1 0 -2.5 0.5t-6.5 2.5t-7.5 5t-4.5 9t2 15q20 62 58 172t52.5 158.5t9.5 55.5q-4 5 -16 -23q-18 -40 -117 -352q-1 -3 -2 -5q-4 -14 -16 -14.5t-22 6.5z" />
    <glyph glyph-name="zero" unicode="0" horiz-adv-x="447" 
d="M376 466q-1 -1 -3.5 -3l-10 -8t-15.5 -10.5t-20.5 -11t-24 -9.5t-26.5 -5t-28 1q-23 5 -41 14q-17 3 -44 -12q-29 -16 -44.5 -65.5t-15.5 -109.5q0 -90 34.5 -137.5t76.5 -52.5h5q51 -3 85.5 28t59.5 93q7 17 11 35.5t5.5 34.5t1 32t-2.5 29t-4.5 24.5t-6 20.5t-6 15.5
t-4.5 10.5l-1 3q3 -2 7.5 -6t17 -18.5t22.5 -30.5t18.5 -42t10.5 -53q6 -131 -94 -218q-27 -23 -64 -33q-43 -15 -83 -8q-95 18 -144 92q-32 49 -45 106t-7.5 108t24.5 96q21 50 49 80t78 50q24 12 51.5 18.5t42.5 6.5h16q17 -30 46.5 -46.5t51.5 -17.5z" />
    <glyph glyph-name="one" unicode="1" horiz-adv-x="298" 
d="M75 28q1 0 4 -1t10 0t12.5 4t11 12t6.5 24q7 74 9.5 166.5t-4.5 175.5v3q-4 28 -18 27q-16 -1 -29 -42q-11 -31 -5 -49.5t12.5 -26t8.5 -7.5q-41 -11 -61 47q-7 19 -10.5 48t-6.5 48t-10 23l15 22q52 -6 83 -7q10 0 59.5 1t69 0.5t27.5 -1.5t14.5 -5.5t8.5 -14.5
q-2 0 -5 0.5t-10.5 -1t-14 -6t-12 -16.5t-7.5 -29q-6 -81 -3 -179t10 -173q3 -25 13.5 -36.5t20.5 -9.5l9 1q-7 -18 -20 -24t-36 -3q-37 6 -53 6.5t-56 -3.5q-32 -4 -43 26z" />
    <glyph glyph-name="two" unicode="2" horiz-adv-x="407" 
d="M54 490q5 -2 13.5 -3.5t30.5 -3.5t41 -0.5t39 11t30 27.5h10.5t26 -3t37 -8.5t39.5 -19t37 -31.5q18 -21 24.5 -42t6.5 -38t-12 -38.5t-22.5 -36t-34.5 -37t-39 -35t-45 -36.5q-4 -3 -6 -4q-77 -62 -88 -103q-6 -26 24 -25q30 0 53 -3q25 -1 40 0t33 8t26 21
q25 50 -14 76l-4 3q43 10 65 -44q6 -18 10 -45.5t7 -45.5t11 -21l-16 -21q-19 4 -37.5 5.5t-29.5 1.5t-32 -0.5t-34 -0.5q-21 0 -86.5 2t-93.5 2h-7q-19 1 -25 14q-9 12 -5 27q1 47 22 84q17 29 30.5 49t43.5 52.5t65 54.5q54 36 94.5 91t13.5 76q-7 5 -21 -3.5t-37.5 -21
t-46.5 -13.5q-31 -1 -56 7t-39 18t-24.5 24t-13 19.5t-4.5 9.5z" />
    <glyph glyph-name="three" unicode="3" horiz-adv-x="401" 
d="M187 39q36 7 61.5 30t25.5 70q0 40 -11.5 67t-38.5 24q-23 -6 -40 -6q-38 -2 -61.5 16.5t-18.5 54.5q4 25 37 35q24 8 26 -2q0 -1 -1 -3q-7 -26 4.5 -39t33.5 -13q9 1 20 3q4 1 8 3q20 9 27 37.5t3 60.5q-3 24 -12 40.5t-24 24.5t-28 11.5t-31 4.5q-2 0 -5 1
q-27 1 -42 -8.5t-26 -31.5q-7 -15 -8.5 -32.5t0.5 -27.5l2 -9q-30 22 -36 48q-2 7 -5 19.5t-4 17.5t-3.5 13.5t-4 12t-4 8.5t-5.5 7.5t-6 3.5l15 23q35 -7 69 -7h12q21 1 58.5 3t49 2t33 -1.5t35 -7.5t29.5 -17q33 -21 45 -57t6.5 -68t-20.5 -53q-23 -31 -58 -45
q37 -11 69 -49q30 -33 23 -87.5t-49 -87.5q-24 -20 -59.5 -27t-64.5 -6.5t-89 5.5q-12 1 -18 1q-35 0 -70 -7l-15 22q4 2 7 4.5t5.5 7t4 8t3.5 12t3.5 13t4.5 16.5t4 19q7 26 36 48q-10 -35 7 -68q12 -25 30 -33.5t55 -3.5h6z" />
    <glyph glyph-name="four" unicode="4" horiz-adv-x="501" 
d="M65 247q-3 10 -1 26q-2 79 -13 147q-4 23 -15.5 37t-20.5 17l-10 3q5 13 14.5 18t30.5 3q55 -7 109 -1q25 3 36.5 -2t13.5 -20q-2 0 -4.5 0.5t-10 -1t-14 -6t-12.5 -16t-7 -29.5q-9 -74 -1 -151q8 -17 34 -21t45.5 10.5t11.5 41.5q-2 6 7 7q21 4 44 -14q13 -10 15 -23
q6 -37 -18 -59t-68 -23q-90 -2 -148 35q-15 7 -18 21zM278 27q1 -1 4 -1.5t10 0t12.5 4t11 12.5t6.5 24q8 78 10 175t-6 180q-3 24 -14 38t-21 17l-10 3q5 13 14.5 18t30.5 3q55 -7 108 -1q26 3 37.5 -2t13.5 -20q-2 0 -5 0.5t-10.5 -1t-14 -6t-12 -16.5t-7.5 -29
q-6 -81 -3 -180t10 -175q2 -16 7 -26.5t11 -14t12 -5t9 -0.5l4 1q-7 -18 -20 -24.5t-36 -2.5q-37 5 -53 6t-56 -3q-32 -4 -43 26z" />
    <glyph glyph-name="five" unicode="5" horiz-adv-x="398" 
d="M175 -3q-12 0 -31 0.5t-29.5 0t-27.5 -1.5t-35 -5l-14 21q7 3 10 21t6.5 45.5t9.5 44.5q19 55 59 45q-1 -1 -4 -3t-8.5 -8.5t-9 -15t-2.5 -22.5t8 -30q5 -11 15 -18t25 -9t25.5 -2.5t29.5 0.5t23 1h24q1 5 1 10q10 65 9 120h-6q-96 -2 -161 31q-25 7 -27 27q-2 9 -1 22
q-4 116 -4 156q0 9 2 17q0 9 14 23q17 17 39.5 30t40 19t36.5 9t25.5 3.5t10.5 0.5q10 -18 29.5 -27.5t40.5 -11t41 0t32 4.5l13 2q-1 -3 -4 -8.5t-13.5 -19.5t-24.5 -24t-40 -18t-56 -7q-30 2 -79 31q-5 -12 -6 -28q-8 -73 -2 -146q8 -20 43.5 -24.5t58.5 9.5q4 5 11 9
q10 13 4 32q-2 6 7 7q24 4 50 -13q15 -11 17 -24q1 -3 1 -6v-2q1 -6 0 -11q-2 -138 -4 -191q-1 -37 -31.5 -53t-66.5 -13h-4h-70z" />
    <glyph glyph-name="six" unicode="6" horiz-adv-x="495" 
d="M481 485q-2 -3 -5 -9t-15.5 -20t-28 -24.5t-44 -17.5t-61.5 -4q-20 2 -40 12q-3 1 -14 7t-15.5 6.5t-16 -1t-26.5 -8.5q-30 -15 -48 -63.5t-22 -108.5q-3 -50 7 -89t27.5 -61.5t36.5 -34t38 -12.5q4 0 8 -1q58 2 85 33q0 1 1 1q15 23 19 44q1 4 1 8q2 35 -32 62
q-36 24 -77.5 17t-75.5 -21q-30 -12 -33 -15q31 40 61 58t68 21q69 5 123 -44q24 -21 31.5 -55.5t-2.5 -72.5q-3 -21 -22 -45t-48.5 -43t-67 -27t-77.5 2q-2 1 -3 1q-39 11 -76 36.5t-56 60.5q-30 52 -39 110t-1 107t28 93q36 75 115 113q27 16 59.5 23t52.5 7l19 -1
q7 -15 21 -25q3 -3 7 -5q23 -14 57 -17.5t58 0.5zM150 185l-1 -1z" />
    <glyph glyph-name="seven" unicode="7" horiz-adv-x="437" 
d="M76 69q140 239 174 334q6 17 9 29q-11 1 -31.5 2.5t-29.5 1.5q-4 0 -18 1t-19.5 0.5t-17 -1t-17.5 -3t-13.5 -6.5t-12.5 -11.5t-8 -17.5q-11 -31 -5 -49.5t13 -26.5t9 -8q-42 -10 -62 48q-7 19 -10.5 48t-6.5 48t-10 22l15 23q19 -4 36 -5.5t28 -1.5h31h32h5q82 1 131 2
h2q3 0 38 1h18q16 1 34 3q13 1 23 -9.5t10 -23.5q-3 -1 -8.5 -4.5t-20 -20t-27.5 -39.5q-28 -53 -62.5 -122t-68 -140t-45.5 -94q-7 -26 22 -24q16 1 18 2q0 -1 -1 -3l-2.5 -5l-2 -4t-2 -3.5t-3 -3.5t-3.5 -3t-4 -2t-5.5 -1.5t-6.5 -1t-7 0.5q-58 6 -147 0q-26 -2 -31 26
q3 0 8.5 0.5t21 10.5t30.5 31zM231 27l1 1z" />
    <glyph glyph-name="eight" unicode="8" horiz-adv-x="429" 
d="M199 204q-32 -28 -49 -60.5t-16 -60t16 -45.5q38 -27 109 -21q48 5 48 45q1 52 -68 112q-15 14 -33 26q-3 2 -7 4zM376 441q25 -66 -73 -155q82 -65 101 -126q39 -120 -65 -174q-41 -22 -85 -27t-80 3t-68 26q-41 18 -64 56q-12 16 -15 33q-15 46 1 82q26 57 105 96
q-42 35 -64.5 66.5t-23.5 70t31 75.5q15 18 38 31.5t39 19t38.5 8.5t25.5 3h11q10 -18 29.5 -27.5t40.5 -11t41 0t32 4.5l13 2q-1 -3 -4 -8.5t-13.5 -19.5t-24.5 -24t-40 -18t-56 -7q-24 1 -48 13.5t-38 21t-21 3.5q-9 -7 -10 -17.5t7 -22.5t20 -24t29.5 -25.5t33.5 -24.5
t34 -23h1q31 23 61.5 53t45.5 48z" />
    <glyph glyph-name="nine" unicode="9" horiz-adv-x="479" 
d="M38 2q1 3 4 9t14.5 21t26.5 26.5t42.5 20.5t60.5 8q20 -1 41 -9q3 -1 14.5 -6t15.5 -5.5t15.5 2t26.5 10.5q29 17 44 66.5t14 110.5q-1 49 -13 87.5t-31 59.5t-39 31.5t-39 9.5h-8q-58 -6 -83 -38v-1q-14 -24 -17 -45v-8q0 -36 36 -60q19 -13 45 -14t49.5 6t44.5 16
t33 17l13 8q-29 -43 -57.5 -63.5t-66.5 -25.5q-69 -10 -126 36q-25 19 -35 53t-3 72q3 22 20.5 47t44.5 45.5t65.5 31.5t77.5 4q1 -1 3 -1q39 -8 77.5 -31t60.5 -56q33 -50 46 -107.5t8.5 -107t-21.5 -94.5q-31 -78 -107 -121q-57 -38 -128 -38q-9 15 -23 24q-4 2 -8 5
q-8 4 -18 7t-20.5 4.5t-20.5 1.5t-20 -0.5t-19 -1.5t-16 -2.5t-12.5 -2.5t-8.5 -2h-3z" />
    <glyph glyph-name="colon" unicode=":" horiz-adv-x="266" 
d="M161 375q0 11 -14 31q-14 -18 -15 -29v-1q8 -2 26 -1h3zM79 424q0 -2 1 -3q2 -10 10 -14.5t19.5 -2t17 9.5t3.5 17q-4 21 -29 17q-11 -2 -17.5 -8t-5.5 -15q1 0 1 -1zM160 431q1 -2 1 -5q6 -16 20 -21q7 -2 15.5 -1t11.5 4q11 11 6 22t-19.5 16.5t-24.5 -0.5
q-8 -4 -10 -15zM158 -16q1 10 -14 30v1q-13 -18 -14 -29v-2q8 -2 26 0h1h1zM76 32q1 -1 1 -3q2 -9 10.5 -13.5t19.5 -2.5t17 9.5t4 17.5q-4 20 -29 17q-11 -2 -17.5 -8.5t-5.5 -14.5v-2zM158 40q0 -3 1 -5q5 -17 19 -21q7 -2 16 -1.5t12 3.5q10 12 5.5 22.5t-19 16
t-25.5 0.5q-8 -4 -9 -15zM147 572q64 -2 91.5 -46.5t0.5 -102.5h-1q-1 -5 0 -15q1 -4 1 -6q1 -9 -2 -17q-4 -11 -15 -14q-6 -2 -16 -2h-1q-10 0 -12 -2q-4 -4 -1 -12q1 -6 2 -10q0 -8 -6 -13q-9 -8 -39 -9h-19q-12 2 -20 7q-9 6 -10 15q-1 4 1 12v1q1 5 0 5q-2 2 -11 3h-2v0
q-8 1 -12 2q-8 2 -12 8q-5 5 -6 14q-1 4 -2 14q0 4 -1 6q-1 10 -2 15l-1 1q0 1 -1 2v1q-1 1 -1 3q-19 50 3 89q25 43 88 51h3h3zM144 180q65 -2 92.5 -46.5t-0.5 -101.5v-1q-2 -5 0 -14q1 -4 1 -7q1 -9 -2 -16q-5 -11 -16 -15q-5 -2 -16 -2q-10 0 -12 -2q-4 -3 -2 -11
q2 -7 2 -10q0 -9 -6 -14q-8 -8 -39 -9q-12 0 -18 1q-12 1 -21 7q-8 5 -10 14q0 5 1 13v1q1 4 0 5q-2 2 -11 3h-1q-8 1 -12 2q-8 2 -13 7q-4 5 -6 14q-1 5 -2 15v6q-1 10 -3 15q-1 2 -1 3q-1 2 -1 3q-19 51 3 90q24 43 88 50h2h3z" />
    <glyph glyph-name="semicolon" unicode=";" horiz-adv-x="263" 
d="M157 362q1 10 -13 30h-1q-13 -17 -14 -28v-2q8 -2 26 -1zM75 410q1 -1 1 -3q2 -10 10.5 -14.5t20 -2t17 10t3.5 17.5q-4 20 -29 16q-11 -1 -17.5 -7.5t-5.5 -14.5v-2zM157 418q0 -3 1 -5q6 -17 19 -21q8 -2 16.5 -1.5t11.5 3.5q11 12 6 22.5t-19.5 16t-24.5 0.5
q-8 -4 -10 -15zM143 558q65 -2 92.5 -46.5t0.5 -101.5l-1 -1q-2 -5 0 -14q1 -5 1 -7q1 -9 -2 -16q-4 -11 -15 -15q-6 -2 -17 -2q-10 0 -12 -2q-4 -4 -2 -12q2 -6 2 -9q1 -9 -5 -14q-9 -8 -39 -9q-12 0 -19 1q-12 1 -20 6q-9 6 -10 15q-1 5 0 13q1 5 1 6q-3 2 -12 2q0 1 -1 1
q-8 0 -12 1q-8 3 -13 8q-4 5 -6 14q0 5 -1 14q-1 5 -1 6q-1 10 -2 15l-1 1q0 2 -1 3t-1 3q-19 51 3 89q24 44 88 51h2h3zM-29 -110l121 159h149q-7 -10 -19.5 -27t-48 -55.5t-66.5 -59.5q-63 -43 -131 -19q-5 1 -5 2z" />
    <glyph glyph-name="equal" unicode="=" horiz-adv-x="753" 
d="M160 407q160 -9 313 4q24 2 39.5 14t21.5 25t19.5 22t34.5 6q19 -2 29 -33.5t-6 -57.5q-10 -15 -7.5 -27.5t10.5 -21t9.5 -25t-12.5 -39.5q-12 -19 -28.5 -18.5t-33.5 15.5q-5 4 -19.5 20.5t-26.5 25t-28 10.5q-105 10 -305 -5q-27 -2 -43.5 -8.5t-22 -12t-14 -20
t-13.5 -21.5q-6 -8 -17.5 -11.5t-26 5t-22.5 31.5q-6 22 -4 32t9.5 24t8.5 20q1 9 -8 30t-8 40q2 30 19.5 41.5t44.5 -4.5q13 -8 25 -24t25.5 -26t36.5 -11zM275 185q160 -8 313 5q24 2 39.5 14t21.5 24.5t19.5 21.5t34.5 7q19 -2 28.5 -34t-5.5 -57q-11 -16 -8 -28.5
t11 -20.5t9 -24.5t-12 -39.5q-13 -19 -29.5 -19t-32.5 16q-5 4 -19.5 20.5t-26.5 25t-28 9.5q-105 11 -305 -5q-27 -2 -43.5 -8.5t-22 -12t-14 -20t-13.5 -20.5q-6 -9 -17.5 -12.5t-26 5t-23.5 31.5q-5 23 -3 33t9.5 23.5t8.5 20.5q1 9 -8.5 30t-7.5 40q1 29 19 40.5
t44 -3.5q14 -8 26 -24.5t25.5 -26.5t36.5 -11z" />
    <glyph glyph-name="question" unicode="?" horiz-adv-x="644" 
d="M308 -69q1 10 -14 30v1q-13 -18 -14 -29v-1q8 -3 26 -1h2zM226 -21q1 -1 1 -3q2 -9 10.5 -13.5t19.5 -2.5t17 9.5t4 17.5q-4 20 -29 17q-11 -2 -17.5 -8.5t-5.5 -14.5v-2zM308 -13q0 -3 1 -5q5 -17 19 -21q7 -2 16 -1.5t12 3.5q10 12 5.5 22.5t-19 16t-25.5 0.5
q-8 -4 -9 -15zM294 127q65 -2 92.5 -46.5t0.5 -101.5q-1 0 -1 -1q-2 -5 0 -14q1 -4 1 -6q1 -10 -2 -17q-5 -11 -16 -15q-5 -2 -16 -2q-10 0 -12 -1q-4 -4 -2 -12q2 -7 2 -10q0 -8 -6 -14q-8 -8 -38 -9q-13 0 -19 1q-12 1 -21 7q-8 5 -10 14q0 5 1 13v1q1 4 0 5q-2 2 -11 3
h-1q-8 1 -12 2q-8 2 -13 7q-4 5 -6 14q-1 5 -1 15q-1 4 -1 6q-1 10 -3 15v1q-1 1 -1 2q-1 2 -1 3q-19 51 3 90q24 43 88 50h2h3zM259 173q-12 29 -13.5 53.5t7.5 45t23 37.5t38 32.5t47.5 27t55.5 24.5q42 18 71 47.5t40.5 61.5t8 65t-23.5 58q-50 63 -117 92t-125 19
t-90 -53q-40 -53 -20 -132q7 -27 21 -51t29 -39.5t29.5 -27t23.5 -16.5l9 -5q-110 28 -157 144q-13 27 -10.5 78t24.5 87q31 50 74.5 72.5t91.5 19.5q35 -3 72 -12t78.5 -27t80 -51t64.5 -76q38 -66 38 -140.5t-32 -123.5q-23 -37 -69 -69t-97 -50q-15 -6 -42.5 -14
t-45.5 -14t-38 -15.5t-31.5 -21t-14.5 -26.5zM259 173l1 -1q-1 0 -1 1z" />
    <glyph glyph-name="A" unicode="A" horiz-adv-x="830" 
d="M400 166q-28 2 -47 16t-25.5 32.5t-6 37t7.5 31.5q17 28 46.5 42.5t58.5 13.5t57 -7q-36 98 -75 189q-8 18 -12.5 22.5t-11.5 -3t-19 -32.5q0 -2 -1 -2q-21 -52 -82 -191.5t-77 -179.5q-31 -74 43 -90l29 -3q-21 -53 -68 -48q-112 14 -175 8q-19 -2 -31 9.5t-12 29.5
q3 -1 8 -1t19.5 2.5t28 8t29.5 20.5t28 36q93 169 202 457v3q9 38 5 62.5t-16.5 37t-25.5 18t-24 6.5h-10q13 32 55 47.5t88 7.5q33 -7 60.5 -24.5t45.5 -38t34.5 -51t25.5 -52t20.5 -53t16.5 -43.5q37 -86 83 -207t72 -182q9 -21 19.5 -34.5t19.5 -18.5t16.5 -6.5
t12.5 -1.5q3 1 4 2q-11 -25 -34.5 -36t-55.5 -6q-52 7 -75 7t-80 -7q-42 -4 -59 40q1 0 4 -0.5t12 -1.5t15.5 0.5t15.5 4t12.5 9t6 17t-3.5 26.5q-14 43 -25 76q-24 66 -40 84.5t-57 16.5q-65 -2 -57 -77zM816 36v0v0z" />
    <glyph glyph-name="B" unicode="B" horiz-adv-x="696" 
d="M244 200q10 -67 44 -103t85 -32q22 2 38.5 5t37.5 12t35 22.5t23.5 38t9.5 56.5q1 54 -18 96.5t-50 47.5q-20 4 -32 8q-46 12 -70 42.5t-12 70.5q0 3 4 -2t12 -13.5t18.5 -17t28 -13t37.5 -1.5q29 5 47 42t18 85q0 29 -9.5 50t-22.5 33t-33 20t-36 10.5t-37 4.5
q-54 4 -87 -35t-39 -111v-4q-4 -140 8 -312zM11 38q2 0 6 -1t14.5 0t18.5 5.5t16 18t10 34.5q10 113 13 252t-8 260q-2 21 -10 37.5t-17 24.5t-18.5 13t-14 6t-6.5 1q8 19 21.5 27t43.5 4q55 -7 190 1q3 0 6 1h20q15 1 47 2.5t43 2t35 1t33.5 -0.5t28 -2.5t28.5 -4.5
t24 -7.5t26 -11t25 -14.5q36 -23 55 -60t20.5 -73.5t-6.5 -70t-24 -54.5q-33 -45 -83 -66q53 -18 98 -72q28 -32 34 -79t-12.5 -95t-59.5 -80q-20 -16 -44.5 -26t-45 -14.5t-57.5 -5.5t-60 0t-75 4t-81 4h-3q-11 0 -40 1t-43 1.5t-38.5 -0.5t-47.5 -4q-44 -5 -62 41z" />
    <glyph glyph-name="C" unicode="C" horiz-adv-x="625" 
d="M610 711q-2 -5 -5.5 -13.5t-20 -30t-38 -37t-60.5 -27.5t-86 -10q-28 1 -57 13q-5 2 -20.5 9t-22 7.5t-22.5 -2.5t-37 -14q-41 -23 -63 -92.5t-22 -155.5q0 -69 16.5 -123.5t43 -84.5t54.5 -45t55 -15h11q128 12 141 112q5 34 -3 63q3 -1 9 -2.5t21 -8.5t27 -16t24 -25.5
t15 -36.5q6 -31 -13.5 -69.5t-54.5 -70.5t-88.5 -51t-110.5 -13q-11 1 -22 3q-133 24 -202 129q-45 69 -63 149.5t-11 152t34 134.5q31 71 70 113t110 71q34 17 72.5 25.5t59.5 9.5h22q12 -21 33 -35q4 -3 9 -5q33 -18 81.5 -20t81.5 5z" />
    <glyph glyph-name="D" unicode="D" horiz-adv-x="692" 
d="M15 40q3 -1 7 -1.5t14 0t18.5 5.5t16 18.5t9.5 34.5q11 113 14 253.5t-8 262.5q-3 21 -10.5 37.5t-16.5 24.5t-19 13t-14.5 6.5t-5.5 1.5q7 19 21 26.5t44 3.5q67 -8 194 0q24 1 32 1h50t53 1q55 0 118.5 -34t90.5 -82q37 -67 48.5 -152t2.5 -156t-31 -130
q-36 -94 -88 -134.5t-135 -41.5q-83 -2 -127 0q-9 0 -25 1q-102 9 -190 -1q-45 -5 -63 42zM242 487q0 -12 -1 -17q-1 -178 15 -347v-4q1 -7 1 -13q4 -19 33 -29.5t106 -12.5q32 -1 55.5 18t36.5 48.5t20.5 73.5t9 84t0.5 88q-3 139 -40 213.5t-99 76.5q-26 1 -42 0t-35 -8.5
t-30.5 -22.5t-20 -42.5t-9.5 -68.5q0 -8 -1 -18q0 -9 1 -19z" />
    <glyph glyph-name="E" unicode="E" horiz-adv-x="817" 
d="M23 30q12 -5 27.5 -2t29 11t25.5 32.5t18 61.5q19 124 20 390q0 77 -24 120t-72 32q0 2 0.5 5t5 11.5t11.5 14t22 9t35 0.5q51 -6 268 -2q33 0 83 2.5t84 5.5l34 2q-2 -4 -3.5 -12.5t0.5 -36t14 -57.5q6 -14 18.5 -27.5t24 -21t19.5 -13.5t7 -9q-2 -7 -12.5 -10.5
t-20.5 -4.5h-10q-6 1 -17 3.5t-40 18.5t-52 41q-38 41 -97 51.5t-91 -19.5q-39 -38 -36.5 -108.5t44.5 -108.5q29 -25 69.5 -33t66 11t12.5 62q-3 9 11 11q28 4 59 -17q23 -16 26 -37q8 -52 -28 -79t-94 -25q-33 1 -75 12t-68 22l-25 10q-2 -14 -2.5 -37t2.5 -77t13 -86
q9 -27 60.5 -45.5t113 -24t121 8.5t81.5 46q40 59 69.5 87.5t52.5 24.5q-4 -7 -10.5 -20t-18 -51t-14.5 -74q-10 -103 -10 -105q-278 5 -393 6q-197 3 -268 -2q-63 -1 -66 33z" />
    <glyph glyph-name="F" unicode="F" horiz-adv-x="681" 
d="M17 33q13 -5 28 -2t29 11t26 32.5t18 62.5q19 123 19 372q-1 48 -5 86q-9 47 -31.5 70t-59.5 14q0 2 1 5.5t5 11.5t11.5 13.5t22.5 9t35 1.5q51 -7 269 -3q32 0 82.5 2.5t84.5 5.5l34 2q-2 -4 -4 -12.5t0.5 -36t14.5 -57.5q6 -14 18.5 -27.5t24 -21t19.5 -14t7 -8.5
q-2 -7 -12.5 -10.5t-20.5 -4.5h-10q-6 1 -17 3.5t-40.5 18.5t-52.5 41q-38 41 -97 52t-91 -20q-38 -38 -36 -109t44 -108q29 -26 69.5 -34t66.5 11t13 63q-3 9 10 11q29 4 60 -18q22 -15 25 -36q9 -52 -27 -79t-95 -26q-32 1 -74 12.5t-68 21.5l-26 11l-1 -72q3 -82 9 -143
q2 -12 3 -24v-2q4 -25 13 -41.5t19.5 -22.5t21 -8t17.5 -1q6 1 7 2q-21 -49 -94 -38q-51 8 -72 9t-69 -3q-34 -5 -57 -7q-64 0 -67 34zM376 38v0v0z" />
    <glyph glyph-name="G" unicode="G" horiz-adv-x="645" 
d="M631 706q-2 -5 -6 -13.5t-20.5 -30t-38 -37.5t-61 -28t-87.5 -10q-28 1 -58 13q-4 2 -20 9.5t-22.5 8t-22.5 -2.5t-37 -15q-42 -23 -64 -93.5t-22 -156.5q0 -70 17 -125t43.5 -85.5t54.5 -45.5t56 -15h11q121 11 141 102q11 87 -46 118q-41 20 -68 19.5t-40 -11.5
l-13 -10q-5 61 82 74q26 3 54.5 2.5t52.5 -3t42.5 -1t23.5 8.5l27 -26q-16 -42 -16.5 -119t-1.5 -86q-2 -31 -27 -67t-64 -66t-95 -45t-112 -4q-2 1 -4 1q-1 0 -2 1q-18 3 -34 10q-46 16 -88 47t-72 69q-50 66 -68 148t-9 154.5t37 138.5q47 110 152 169q37 25 83.5 38
t74.5 13l27 1q12 -21 32 -34q5 -3 11 -7q33 -18 82.5 -20t81.5 5z" />
    <glyph glyph-name="H" unicode="H" 
d="M20 34q2 -1 6 -1.5t14.5 0t18.5 5.5t16 18.5t10 34.5q11 114 13.5 254.5t-8.5 262.5q-2 21 -10 37.5t-17 25t-18.5 13.5t-14.5 6t-6 1q7 19 21 27t45 4q80 -10 159 -1q37 5 54 -2.5t20 -29.5q-3 0 -7 0.5t-15.5 -1.5t-20.5 -8.5t-17.5 -23.5t-11.5 -43q-7 -80 -5 -208
q3 -32 43.5 -42.5t74 10.5t20.5 64q-3 9 11 11q30 4 61 -19q22 -16 25 -36q8 -52 -28.5 -79.5t-95.5 -25.5q-44 1 -109 22q5 -121 14 -213q3 -23 10 -38.5t16 -21t17.5 -7t14.5 -0.5q4 1 5 2q-11 -27 -30 -36t-52 -4q-55 8 -78 9t-83 -5q-46 -5 -62 38zM423 32q3 -1 7 -1.5
t14 0t18.5 5.5t16 18.5t9.5 34.5q11 115 14 257t-8 264q-2 22 -10 38.5t-17.5 24.5t-18.5 13.5t-14 6.5l-6 1q7 20 21 27.5t44 3.5q81 -10 160 -1q37 5 54 -2.5t20 -29.5q-3 0 -7.5 0.5t-15.5 -1.5t-20 -8.5t-17.5 -24t-11.5 -43.5q-8 -119 -4 -263.5t15 -255.5
q3 -24 10 -39.5t16 -21t17.5 -7t14.5 -0.5l5 1q-11 -26 -30 -35.5t-52 -4.5q-55 9 -78 9.5t-83 -5.5q-46 -5 -63 39zM325 32v0v0z" />
    <glyph glyph-name="I" unicode="I" horiz-adv-x="355" 
d="M36 37q3 -1 7 -2t14 0t18.5 5.5t16 18t9.5 34.5q11 114 14 254t-8 261q-3 21 -10.5 37.5t-17 24.5t-18.5 13t-15 7l-5 1q7 19 21 26.5t44 3.5q81 -10 159 0q37 4 54 -3t19 -30q-2 1 -6.5 1.5t-15.5 -1.5t-20 -8.5t-17.5 -24t-11.5 -42.5q-8 -118 -4 -260.5t15 -252.5
q2 -24 9.5 -39t16.5 -20.5t17 -7t14 -0.5l6 1q-11 -26 -30 -35t-52 -4q-54 7 -80.5 7t-85.5 -7q-21 -2 -34 7.5t-23 34.5z" />
    <glyph glyph-name="J" unicode="J" horiz-adv-x="661" 
d="M43 706q7 -2 19.5 -4.5t46 -5.5t62.5 -0.5t59 17.5t45 42q59 3 123 -23q78 -28 128.5 -75.5t81.5 -121.5q28 -66 36.5 -139.5t-9.5 -156.5t-67 -149q-35 -47 -87.5 -81.5t-104.5 -46.5q-85 -18 -163 23q-44 24 -60 41q-32 28 -52 61t-22 60q-1 14 -1.5 91t-16.5 119
l27 27q6 -9 35 -9t63 3.5t71 -1.5q85 -14 80 -75l-4 4t-14 9t-23.5 8t-33.5 -2t-44 -17q-52 -30 -45 -113q3 -20 12 -38t26 -35.5t49 -28.5t75 -12q27 3 53 19.5t50 47.5t39 84.5t15 121.5q0 83 -22 152.5t-63 99.5q-28 21 -36.5 25t-14.5 1q-61 -39 -107 -42
q-128 -5 -190 88q-11 18 -16 32z" />
    <glyph glyph-name="K" unicode="K" horiz-adv-x="1638" 
d="M470 600q15 16 16.5 30.5t-6 24t-17.5 16.5t-19 11l-8 3q7 19 21 27t45 4q72 -9 191 3q21 2 32 -8.5t11 -28.5q-8 -1 -21 -4.5t-49 -23t-65 -48.5q-68 -66 -154 -141.5t-117 -106.5q21 -60 82 -88q45 -20 95 -57.5t108 -93t105.5 -105t121.5 -128t122 -127.5
q117 -119 291 -170q146 -42 232 -9q83 31 53 117q-3 6 -6 13q6 0 16 -2t30.5 -12.5t31.5 -25.5q9 -14 10.5 -31.5t-4.5 -37t-24 -39.5t-47 -36q-80 -42 -187.5 -33t-221 55t-219.5 121q-81 57 -163.5 122.5t-170 144.5t-164 167.5t-124.5 168.5q-24 41 -55 74
q4 -143 15 -252q2 -24 9.5 -39.5t16.5 -20.5t17.5 -7t13.5 -1t6 2q-11 -27 -30 -36t-52 -4q-55 7 -79 7t-83 -7q-45 -4 -63 42q2 0 6 -1t14.5 0t19 5.5t16 18t9.5 34.5q11 115 14 256t-8 264q-2 21 -10 37.5t-17.5 25t-18.5 13.5t-15 6l-6 1q8 20 22 27.5t44 3.5
q72 -9 191 3q21 2 32.5 -8t11.5 -28q-3 1 -7.5 1.5t-15.5 -2t-20 -9t-18 -24t-11 -42.5q-7 -79 -6 -205q9 7 47.5 36t63 49t60 51t59.5 57zM320 28v0v0z" />
    <glyph glyph-name="L" unicode="L" horiz-adv-x="645" 
d="M16 30q13 -5 28.5 -2t29 11.5t25.5 33t18 62.5q18 125 16 394q0 78 -24.5 121t-73.5 31q0 2 0.5 5.5t5 11.5t11.5 13.5t22.5 9.5t35.5 1q51 -5 121.5 -4t128.5 8q20 2 35 -2t21.5 -11.5t10 -15t4.5 -12.5v-6q-30 1 -61.5 -14.5t-50.5 -34.5q-14 -14 -22.5 -49.5
t-11.5 -70t-2.5 -76.5t1 -57.5t1.5 -24.5q-1 -15 -2 -38.5t3 -77.5t15 -87q9 -27 34 -46.5t55 -26t63 6t55 45.5q42 62 70.5 90t52.5 21q-29 -50 -35 -123q-9 -116 -9 -121q-117 6 -233 7q-199 1 -270 -5q-21 -2 -36 0.5t-20.5 8t-9 11t-2.5 9t0 4.5z" />
    <glyph glyph-name="M" unicode="M" horiz-adv-x="893" 
d="M606 33q0 1 8 0t21 3t25 9.5t21.5 20.5t9.5 36q3 99 -4 441q-3 -8 -15.5 -38t-20.5 -49q-41 -96 -94 -202t-63 -134q-4 -12 -24 -16.5t-37 -2.5l-18 1q-10 1 -18 7q-11 5 -14 14q-9 27 -61.5 133t-93.5 203q-4 10 -17.5 42.5t-19.5 46.5q-1 -181 2 -444q0 -22 9 -37
t21 -21t25 -9.5t21 -2t9 0.5q-10 -27 -27 -36t-46 -4q-48 8 -68 9t-73 -5q-45 -6 -59 35q1 1 9 0t20.5 2.5t25 9.5t21.5 21t9 36q1 118 1 163t-2.5 185.5t-3.5 165.5q-1 73 -54 76l-18 -1q6 19 18.5 27t39.5 4q40 -6 139 -1q24 1 47 -31q27 -34 55 -98t70.5 -178.5
t57.5 -153.5q15 34 52 118.5t57 128.5t47 98.5t45 82.5q6 12 11 18q1 0 1 1v0q15 15 51 13q11 0 29 -1.5t25.5 -1.5t21.5 0.5t31 2.5q33 5 48 -2.5t17 -29.5q-3 1 -8.5 3t-20 1.5t-25.5 -7.5t-20.5 -28t-9.5 -55q-2 -180 2 -500q0 -22 9 -37t21 -20.5t25 -9.5t21 -2.5t8 0.5
q-9 -26 -26 -35.5t-46 -4.5q-48 8 -68.5 9t-72.5 -5q-45 -6 -59 35z" />
    <glyph glyph-name="N" unicode="N" horiz-adv-x="781" 
d="M50 35q1 1 9 0t20.5 2.5t25 9t21.5 20.5t9 36q1 119 1 163.5t-2.5 185t-3.5 164.5q0 27 -7.5 44t-18 23.5t-21.5 8.5t-18 1l-7 -1q6 19 18.5 26.5t38.5 3.5q71 -10 140 0q12 1 21 1q27 5 37 -1q22 -14 51 -82.5t70 -174t81 -176.5q18 -33 38 -73q1 77 -2.5 231t-3.5 158
q0 26 -8.5 44.5t-20 25.5t-23 10.5t-19.5 3.5l-8 -1q7 19 19 27t39 4q71 -10 140 -1q35 5 54.5 -1t21.5 -27q-3 1 -8 2.5t-18.5 0t-23.5 -9t-19 -29.5t-9 -57q-3 -290 4 -502q1 -20 6.5 -30.5t19.5 -16.5q31 -5 67 17q6 4 5 0q0 -3 -5 -17q-17 -44 -47.5 -66t-64.5 -22.5
t-64 8.5t-51 25q-27 20 -63.5 87.5t-69 143t-78.5 164.5t-88 142q0 -179 3 -426q0 -21 9 -36.5t21 -21t24.5 -9t20.5 -2.5t9 0q-10 -26 -26.5 -35t-45.5 -4q-48 8 -68 9t-73 -5q-45 -6 -59 35z" />
    <glyph glyph-name="O" unicode="O" horiz-adv-x="697" 
d="M417 -14q-41 -11 -83 -10q-94 3 -167.5 51.5t-113.5 124t-45 164.5q-4 63 8 124t39.5 118t80 101t122.5 64q46 15 92 14q94 -2 168.5 -49.5t115 -122t47.5 -163.5q4 -66 -7.5 -129t-41 -121.5t-85 -102.5t-130.5 -63zM403 638q-32 14 -71 12q-46 -3 -84 -46.5t-59 -113
t-19 -147.5q1 -106 39 -183t104 -96q15 -3 31 -3q57 1 98 48.5t60 117t19 150.5q0 92 -31.5 162t-86.5 99z" />
    <glyph glyph-name="P" unicode="P" horiz-adv-x="723" 
d="M50 33q2 -1 6 -2t14.5 0t18.5 5.5t16 18.5t10 35q11 114 14 255t-8 263q-3 21 -11 37.5t-17 25t-18.5 13.5t-14.5 6t-6 1q7 20 21 27.5t45 3.5q56 -7 199 2q16 1 24 1q12 0 46 1.5t43 2t35 1t33.5 -0.5t27 -2.5t28.5 -4.5t24 -7.5t26.5 -11t24.5 -14.5q41 -27 60 -70.5
t17.5 -84.5t-15.5 -77t-47 -74q-69 -77 -217 -64q-59 6 -91.5 30t-24.5 76q4 33 48 49q35 13 42 1q2 -3 1 -7q-11 -38 5.5 -57t48.5 -19q14 1 30 4q6 2 13 4q29 14 38.5 55.5t4.5 89.5q-4 35 -17.5 59t-35 36t-41 17t-45.5 7q-54 4 -88 -35.5t-40 -112.5v-4q-5 -209 16 -416
q2 -23 9.5 -38.5t16.5 -21t17.5 -7t13.5 -0.5l6 1q-11 -26 -30 -35t-52 -4q-55 7 -78.5 7t-83.5 -7q-44 -5 -62 42z" />
    <glyph glyph-name="Q" unicode="Q" horiz-adv-x="1621" 
d="M434 -11q-41 -11 -82 -10q-93 3 -166.5 51t-113 123t-44.5 163q-4 63 7.5 124t39.5 117.5t80 100t122 63.5q45 15 91 14q93 -2 167 -49t114.5 -121.5t47.5 -162.5q10 -147 -54 -259q50 -41 108 -99.5t138.5 -144.5t125.5 -131q108 -110 269 -155q133 -37 208 -4
q72 32 35 115q6 -1 14.5 -2.5t27 -11t28.5 -23.5q8 -12 9.5 -28t-4 -33.5t-22 -35.5t-42.5 -32q-71 -37 -167.5 -29t-198.5 49.5t-197 107.5q-244 171 -423 356q-51 -37 -118 -53zM421 637q-32 14 -71 12q-46 -3 -84 -46.5t-58.5 -112.5t-19.5 -146q2 -106 40 -182.5
t103 -95.5q15 -3 31 -3q66 1 112 65q-36 42 -64 82q-46 65 -57 110t0.5 59.5t27.5 10.5q4 -1 5 -11.5t8.5 -33.5t26.5 -47q9 -13 15.5 -20t28 -21.5t53.5 -29.5q20 70 20 150q0 92 -31.5 161.5t-85.5 98.5z" />
    <glyph glyph-name="R" unicode="R" horiz-adv-x="1646" 
d="M23 35q2 -1 6 -2t14.5 0t18.5 5.5t16 18t10 34.5q11 115 13.5 255.5t-8.5 262.5q-2 21 -10 37.5t-17 25t-18 13.5t-15 6l-6 1q7 20 21 27.5t45 3.5q60 -7 190 0q3 0 7 1q24 1 65.5 3t57.5 3t45 0.5t42.5 -3t33.5 -8t36 -15t33 -23.5q37 -28 55.5 -72.5t19 -89.5t-7.5 -85
t-22 -70q-59 -124 -198 -73q0 -1 0.5 -3.5t4 -9.5t10 -14.5t21 -18t35.5 -19.5q41 -19 87 -53t99 -85.5t97 -96.5t111.5 -117t111.5 -117q110 -112 273 -157q136 -38 213 -5q75 32 37 117q6 0 15 -2t28 -11.5t28 -23.5q9 -13 10.5 -29t-4 -34t-22.5 -36t-43 -32
q-73 -39 -171.5 -30.5t-203 50.5t-201.5 110q-160 113 -320.5 256.5t-256.5 278.5q-82 117 -58 167q10 22 29 16q3 -1 6 -10t7 -17.5t18 -14.5t40 0q29 6 47 51.5t18 104.5q0 35 -9 61t-22.5 41t-33.5 24.5t-36.5 13t-37.5 5.5q-54 5 -87.5 -43t-39.5 -136q0 -5 -1 -8
q-1 -194 17 -366q2 -24 9.5 -39t15.5 -20.5t18 -7t13.5 -1t5.5 1.5q-11 -26 -30 -35t-52 -5q-54 8 -78 8t-83 -7q-45 -5 -62 42z" />
    <glyph glyph-name="S" unicode="S" horiz-adv-x="578" 
d="M520 704q-1 -5 -4.5 -12.5t-19 -27t-35 -34t-56 -26t-79.5 -9.5q-33 2 -67 19t-54 29.5t-29 5.5q-14 -11 -14.5 -25.5t10.5 -31t27.5 -34t41 -36t47.5 -34t49 -32.5q74 -47 133.5 -107.5t78.5 -119.5q11 -33 13.5 -63.5t-4.5 -64.5t-32.5 -64.5t-67.5 -53.5
q-49 -25 -100.5 -34.5t-96 -4t-86 20.5t-73 38t-53 48t-29.5 51.5t0 47.5q9 25 25 41t30 21.5t30 6t22 -0.5t9 -2q-1 -4 -2 -11.5t-0.5 -29t5 -41t18.5 -42t36 -38t61 -23.5t90 -3q64 5 69 58q5 62 -72 140q-31 31 -71 59q-45 31 -78 57t-67.5 58t-52.5 62t-27 63t1.5 67.5
t39.5 68.5q23 26 54.5 45t54.5 26.5t54.5 12t36 4.5h15.5q14 -25 42 -39t57.5 -15.5t57 0t45.5 5.5z" />
    <glyph glyph-name="T" unicode="T" horiz-adv-x="665" 
d="M176 34q2 -1 6 -2t14.5 0t18.5 5.5t16 18t10 34.5q11 114 13.5 254t-8.5 261v2q-7 23 -34 29.5t-57 -10.5t-42 -53q-9 -26 -9.5 -48t4.5 -35t12 -22.5t12 -13t6 -3.5q-61 -16 -91 68q-9 28 -14 71t-10 70.5t-15 32.5l22 32q27 -5 52.5 -7.5t41 -2.5t44.5 0.5t48 0.5h5
q11 0 83 1.5t100 0.5q26 -1 36 -2q16 0 46.5 -0.5t46 -0.5t41.5 2.5t54 7.5l23 -32q-11 -5 -16 -32.5t-10 -70.5t-15 -71q-31 -84 -95 -68q3 1 6.5 3.5t11.5 12.5t13 23t4.5 35t-9.5 48q-13 37 -44 54t-58 10.5t-32 -29.5q-9 -118 -4.5 -260t15.5 -251q6 -67 50 -67
q10 -1 12 1q-11 -26 -30 -35t-52 -4q-54 8 -77 8.5t-83 -4.5q-46 -5 -62 38zM480 31v0v0z" />
    <glyph glyph-name="U" unicode="U" horiz-adv-x="717" 
d="M622 162q2 -38 -9.5 -64t-45.5 -54q-44 -35 -121 -49t-145.5 -8.5t-113.5 21.5q-68 24 -97 59.5t-25 73.5q4 84 4 229.5t-11 235.5q-2 21 -10 37.5t-16.5 25t-18.5 13.5t-14.5 6.5t-5.5 1.5q7 19 20.5 27t43.5 4q80 -10 157 -1q36 5 53 -2.5t19 -30.5q-2 1 -6.5 1.5
t-15.5 -2t-20 -9t-17 -23.5t-11 -43q-14 -160 4 -431q0 -2 1 -5q6 -83 132 -74q19 1 34.5 4t27.5 6.5t21 9.5t15.5 10.5t11 12.5t7 12.5t4.5 14.5t2.5 14t1.5 14t1 13q4 94 5.5 140t0 121t-8.5 136q-3 21 -10.5 38t-16.5 25t-17.5 13.5t-14.5 6.5l-6 1q7 19 20.5 27t43.5 4
q79 -10 155 -1q37 5 53.5 -2.5t18.5 -29.5q-2 0 -6.5 0.5t-15.5 -1.5t-19.5 -9t-17 -24t-10.5 -43q-7 -79 -8.5 -250t-2.5 -202z" />
    <glyph glyph-name="V" unicode="V" horiz-adv-x="835" 
d="M295 684q-2 0 -5 0.5t-12 1.5t-15.5 0t-16 -3.5t-13 -9.5t-6 -17t3.5 -27q80 -257 157 -440q9 -21 17.5 -21.5t20.5 21.5q21 52 87.5 201t83.5 189q11 29 8 47.5t-16 28t-27.5 14t-25.5 5.5h-12q22 54 70 48q69 -9 185 1q20 2 30.5 -8t10.5 -27q-3 0 -8.5 -1t-21 -5.5
t-30 -12.5t-32 -24.5t-29.5 -38.5q-95 -170 -208 -461q0 -1 -1 -3q-9 -39 -5 -63t16.5 -37.5t26 -18.5t24.5 -7q9 -1 10 0q-14 -33 -57 -48.5t-89 -5.5q-33 6 -61 24t-46 39t-34.5 52t-25 53t-20 54t-16.5 44q-37 88 -82.5 211t-71.5 185q-26 61 -73 61q11 25 35.5 36
t56.5 6q48 -8 76 -8t81 6q43 4 60 -41zM562 16v0v0z" />
    <glyph glyph-name="W" unicode="W" horiz-adv-x="1119" 
d="M343 266q112 267 137 342q7 19 54 17q48 1 57 -19q2 -4 61.5 -118t104.5 -220q15 -37 29 -72q19 79 55.5 241.5t44.5 195.5q4 22 0.5 36t-12.5 22t-18.5 11t-16.5 4l-7 1q15 22 33 27t44 -6q38 -17 71 -18.5t77 7.5q39 7 47 -38q-3 0 -9 -0.5t-22 -5t-29 -11.5t-26.5 -22
t-18.5 -35q-79 -289 -124 -500q-1 -1 -1 -3q-4 -18 1 -31.5t12 -20t17.5 -10t15 -4t6.5 -0.5q-14 -43 -55 -38q-53 6 -73.5 5.5t-69.5 -9.5q-29 -4 -46 5t-27 34q3 0 6 0.5t12.5 2.5t14.5 7.5t9.5 16t-1.5 26.5q-82 159 -156 324q-82 -225 -134 -320q-4 -10 -5 -18.5
t1 -14.5t5.5 -10.5t8 -7t9 -4.5t9.5 -2.5t9 -0.5h6h2q-11 -26 -29.5 -35t-51.5 -4q-54 8 -76.5 8.5t-81.5 -4.5q-46 -5 -62 37q3 0 7.5 0.5t16 4.5t20 10t13.5 19t2 31q-1 3 -2 7q-10 38 -57 232.5t-67 265.5q-6 21 -18.5 36t-25.5 22t-27.5 11t-20.5 4.5t-9 0.5
q11 38 69 34q12 0 35.5 -2.5t33 -2.5t28 3t39.5 12q37 15 62 -22q-2 -1 -4.5 -1.5t-10.5 -2.5t-13.5 -5.5t-14 -9.5t-12 -14.5t-6 -20.5t2.5 -27q50 -208 111 -435h9q15 41 32 82z" />
    <glyph glyph-name="X" unicode="X" horiz-adv-x="907" 
d="M469 289q-39 -36 -116 -112q-22 -22 -34.5 -40t-16 -33t-2.5 -25t4 -27.5t4 -30.5q1 -15 -9.5 -29t-32 -19.5t-55.5 13.5q-24 13 -34 31t-13.5 38.5t-8.5 28.5q-7 11 -37 26t-46 37q-27 33 -17.5 64t53.5 37q22 4 50.5 -2.5t53 -5t50.5 21.5q53 40 121 97q-72 56 -134 98
q-23 16 -46 19.5t-40.5 -1.5t-34 -9.5t-34.5 0t-36 22.5q-9 9 -8.5 27.5t7.5 37.5t23.5 36t36.5 23q21 6 30 18t10 25.5t3.5 28t17 29.5t44 26t48.5 -5t24 -50q1 -8 2 -40t7 -53t22 -37q60 -60 140 -124q80 70 141 131q20 20 27.5 42t5.5 40t-3.5 35t6 34t29.5 31
q23 15 64.5 -11.5t46.5 -68.5q2 -22 12 -33t23.5 -14.5t27.5 -8t26 -21.5t17 -48.5t-14 -47.5t-53 -14q-8 0 -40 5t-53.5 3t-40.5 -16q-64 -44 -135 -105q39 -28 120 -85q26 -19 45.5 -28t35 -9.5t25.5 2t26.5 9t28.5 9.5q26 6 47.5 -17t4.5 -72q-8 -26 -24 -39t-35.5 -20.5
t-26.5 -13.5q-10 -9 -19 -41t-28 -52q-28 -32 -60 -28.5t-46 45.5q-6 18 -7 40.5t0 37.5t-7 34.5t-27 37.5q-56 51 -136 116z" />
    <glyph glyph-name="Y" unicode="Y" horiz-adv-x="1026" 
d="M564 693q-2 0 -5 0.5t-12.5 1.5t-16.5 -0.5t-17 -4t-13.5 -9t-6.5 -16.5t4 -26q60 -166 122 -305q121 176 151 248q10 28 9 47t-11.5 29.5t-22 16.5t-21.5 7l-9 2q21 52 69 46q70 -8 186 4q20 2 31 -7.5t11 -25.5q-3 -1 -8.5 -1.5t-21.5 -5.5t-30 -13t-31.5 -24
t-28.5 -37q-85 -150 -258 -424q-87 -148 -208.5 -299.5t-207.5 -231.5q-51 -46 -112 -82t-117.5 -54.5t-104.5 -13.5t-70 38q-52 78 34 122q19 10 37 14q0 -27 6 -45t16 -26t26 -10t31 0.5t36 8.5q80 23 185 117t185 213q93 138 123 206q13 50 -10 97q-40 85 -90 203.5
t-78 178.5q-10 21 -21.5 34.5t-21 18t-17.5 6t-13 0.5l-5 -1q11 24 37 35t60 6q56 -6 80.5 -6t85.5 7q45 5 64 -39z" />
    <glyph glyph-name="Z" unicode="Z" horiz-adv-x="621" 
d="M392 -7q-28 0 -143.5 2t-159.5 2q-20 0 -38 -1q-20 -2 -32 18.5t0 32.5q5 1 13 3.5t28.5 16t35.5 33.5q73 124 148 265t100 211q9 24 12 42l-45 3t-42 2q-7 1 -26.5 1.5t-28 0.5t-24.5 -1t-24.5 -4.5t-20 -9.5t-18.5 -16.5t-11 -25.5q-16 -44 -7.5 -71t18.5 -38t13 -11
q-60 -16 -89 68q-10 27 -15 69.5t-9.5 69.5t-14.5 32l21 32q27 -5 52.5 -7.5t41 -2.5t44 0.5t46.5 0.5h7q118 1 189 2q1 0 2 1q5 0 55 1q14 0 26 1q24 1 50 3q19 2 33 -13.5t14 -33.5q-4 -2 -12 -7t-29 -28.5t-39 -56.5q-39 -73 -84 -163t-96.5 -198t-63.5 -132q21 -1 44 -1
q8 0 30 -1t36.5 -1.5t35.5 1.5t35 6t27.5 13t20.5 23q34 69 -16 107l-10 6q63 15 94 -64q10 -25 15 -65t9.5 -65.5t15.5 -30.5l-22 -29q-28 4 -54.5 6.5t-42.5 2.5t-46 -0.5t-49 -0.5z" />
    <glyph glyph-name="underscore" unicode="_" horiz-adv-x="610" 
d="M132 -35q160 -8 313 5q24 2 39.5 14t21.5 24.5t19.5 22t34.5 6.5q19 -2 29 -34t-6 -57q-10 -15 -7.5 -27.5t10.5 -21t9.5 -25t-12.5 -39.5q-12 -19 -28.5 -19t-33.5 16q-5 4 -19.5 20.5t-26.5 25t-28 10.5q-105 10 -305 -6q-27 -2 -43.5 -8.5t-22 -12t-14 -19.5
t-13.5 -21q-6 -9 -17.5 -12t-26 5t-22.5 32q-6 22 -4 32t9.5 23.5t8.5 20.5q1 9 -8 30t-8 40q2 29 19.5 40.5t44.5 -3.5q13 -8 25 -24t25.5 -26t36.5 -12z" />
    <glyph glyph-name="a" unicode="a" horiz-adv-x="567" 
d="M268 114q-24 2 -38.5 17.5t-14.5 32.5t5 30q12 19 32 29t40 9t39 -5q-25 67 -52 130q-6 17 -11.5 16t-17.5 -26v-1q-15 -35 -56.5 -130.5t-52.5 -122.5q-6 -14 -6 -24.5t3.5 -17t10.5 -11t13 -7t14 -3.5t10 -1h4q-14 -36 -47 -32q-76 9 -119 5q-13 -2 -21 6t-8 20h5.5
t13 1.5t19 5.5t20.5 14t19 25q63 115 138 312v2q4 14 4 26t-1.5 20t-5.5 15t-8 11t-10.5 6.5t-10 4t-9 2t-6 0.5h-2.5q9 22 38 32.5t60 4.5q22 -4 41 -16t31.5 -26t24 -35t17.5 -36t13.5 -36t11.5 -29q25 -59 56.5 -142t49.5 -125q21 -46 49 -40q-15 -36 -62 -29
q-35 5 -50.5 5t-54.5 -4q-29 -4 -41 27q1 0 3 -0.5t8 -1t10.5 0t11 2.5t8.5 6.5t4 11.5t-2 18q-10 30 -18 52q-16 45 -27 58t-39 11q-48 -1 -38 -58z" />
    <glyph glyph-name="b" unicode="b" horiz-adv-x="518" 
d="M203 141q7 -47 30 -71.5t59 -21.5q19 1 33.5 5t31 13t25.5 27.5t9 46.5q0 40 -11.5 67t-38.5 24q-23 -6 -40 -7q-38 -1 -61.5 17.5t-18.5 54.5q4 25 37 35q24 8 26 -2v-3q-8 -26 3.5 -39t33.5 -13q9 1 20 3q4 1 8 3q21 9 27.5 37.5t2.5 60.5q-3 24 -12 40.5t-24 24.5
t-28 11t-31 5q-37 3 -59.5 -24t-26.5 -76q-1 -2 -1 -3q-2 -97 6 -215zM43 29q1 0 4 -0.5t10 0t12.5 3.5t11 12.5t6.5 23.5q7 78 9 174t-5 179q-3 23 -14.5 37t-21.5 17l-10 3q6 13 15 18t30 3q38 -5 127 0q4 1 8 1q82 6 129 3t84 -27q33 -21 45 -57t6.5 -68t-20.5 -53
q-23 -31 -58 -45q37 -12 69 -49q30 -33 23 -87.5t-49 -88.5q-17 -13 -35 -20t-42.5 -9t-43.5 -1.5t-56 2t-62 2.5h-7q-77 4 -123 -1q-30 -3 -42 28z" />
    <glyph glyph-name="c" unicode="c" horiz-adv-x="439" 
d="M425 497q-1 -4 -4 -10t-14.5 -21t-27 -26t-43 -19.5t-60.5 -7.5q-20 1 -41 9q-3 2 -14.5 7t-16 5.5t-15.5 -2t-26 -10.5q-29 -16 -44.5 -65.5t-15.5 -109.5q0 -50 11.5 -88.5t30.5 -59.5t38.5 -32t38.5 -11h8q27 3 46.5 11t30 18.5t16.5 24.5t7.5 25t0.5 23t-1.5 16
t-1.5 6q2 0 6 -1.5t15 -6t19.5 -11t17 -18.5t11.5 -26q4 -22 -10 -49t-39 -50t-63 -36.5t-78 -9.5q-8 1 -15 2q-95 18 -144 92q-32 49 -45 106t-7.5 108t24.5 96q21 50 49 80t78 50q24 12 51.5 18.5t42.5 6.5h16q8 -15 23 -25q3 -2 6 -3q23 -13 58 -14.5t58 3.5z" />
    <glyph glyph-name="d" unicode="d" horiz-adv-x="471" 
d="M4 29q1 -1 4 -1.5t10 0t12.5 4t11 12.5t6.5 24q8 77 10 173t-6 179q-2 15 -7.5 26t-11.5 16.5t-12.5 9t-9.5 4.5t-4 1q5 13 14.5 18.5t30.5 2.5q46 -6 132 0q17 1 22 0q11 0 34 0.5t36 0.5q38 0 81.5 -23.5t61.5 -55.5q25 -46 33 -104t2 -107t-21 -88q-24 -65 -60 -92.5
t-92 -28.5q-57 -1 -88 0q-5 0 -17 1q-69 6 -130 -1q-30 -3 -42 29zM158 334q1 -7 0 -11q-1 -131 11 -249q3 -13 22.5 -20t72.5 -9q27 -1 45 17.5t26 52.5t10.5 67.5t1.5 76.5q-2 95 -27.5 145.5t-67.5 52.5q-22 1 -35 -1t-27.5 -11t-22 -30t-8.5 -55q-1 -6 -1 -12v-14z" />
    <glyph glyph-name="e" unicode="e" horiz-adv-x="457" 
d="M-5 23q23 -5 42.5 9.5t27.5 62.5q13 85 13 270q0 53 -16.5 82.5t-49.5 21.5q0 2 0.5 4t3.5 7.5t8 9.5t15 6.5t24 0.5q36 -4 185 -2l139 7q-11 -26 8 -73q4 -10 12.5 -19t16.5 -14.5t13.5 -9.5t4.5 -6q-1 -5 -8.5 -7.5t-13.5 -2.5h-7q-5 0 -12.5 2t-27.5 13t-36 28
q-26 28 -66.5 35.5t-62.5 -13.5q-27 -26 -25.5 -74.5t30.5 -74.5q20 -18 48 -23.5t45.5 7.5t8.5 43q-1 7 7 8q22 3 45 -14q12 -10 14 -23q6 -36 -19 -55t-65 -17q-22 0 -51 8t-47 15l-18 7q-7 -88 10 -138q6 -19 23 -32.5t37.5 -18t43 4t37.5 30.5q29 42 49 61.5t36 13.5
q-20 -34 -24 -84l-8 -82q-79 5 -159 6q-136 1 -185 -2q-45 -2 -46 22z" />
    <glyph glyph-name="f" unicode="f" horiz-adv-x="463" 
d="M-1 21q23 -5 42.5 9.5t27.5 62.5q13 86 13 259q-1 33 -4 59q-13 70 -62 59v3.5t3.5 8t8 9.5t15 6t24.5 1q36 -5 187 -2l139 7q-11 -27 8 -73q4 -11 12.5 -20t16.5 -14.5t13.5 -9.5t5.5 -6q-2 -5 -9.5 -7.5t-13.5 -2.5h-7q-4 0 -12 2t-28 13t-36 28q-27 29 -67.5 36.5
t-63.5 -13.5q-26 -27 -24.5 -76t30.5 -75q20 -18 48 -23.5t46 7.5t9 44q-2 6 7 8q23 3 46 -16q11 -10 13 -22q6 -36 -19 -55t-66 -17q-22 0 -51 8t-47 15l-18 7l-1 -49q2 -57 7 -100l2 -16v-2q6 -51 45 -50q7 0 8 1q-14 -34 -65 -26q-55 8 -97 4l-40 -5q-46 -1 -46 23z
M247 25v0v0z" />
    <glyph glyph-name="g" unicode="g" horiz-adv-x="450" 
d="M435 495q-1 -3 -4 -9t-14.5 -21t-26.5 -26.5t-43 -20t-61 -6.5q-20 0 -41 9q-3 1 -14 6t-15.5 5.5t-16 -1.5t-25.5 -10q-30 -16 -45.5 -65.5t-15.5 -110.5q0 -49 12 -87.5t30.5 -60t38.5 -32t39 -10.5h8q85 7 99 71q7 61 -32 83q-29 14 -48 14t-28 -8l-10 -7q-3 42 58 52
q18 2 38 1.5t37 -2t30 -0.5t17 6l19 -18q-12 -30 -12 -84t-1 -60q-1 -22 -19 -47t-45 -46.5t-66.5 -32t-78.5 -2.5q-2 0 -3 1h-2q-12 3 -24 7q-68 25 -111 82q-35 46 -48 103.5t-7 108.5t26 97q33 77 107 119q26 17 58.5 26.5t52.5 9.5h19q8 -14 22 -24l8 -4
q23 -13 57.5 -14.5t57.5 3.5z" />
    <glyph glyph-name="h" unicode="h" horiz-adv-x="507" 
d="M6 25q1 0 4 -0.5t10 0t13 3.5t11 12.5t7 23.5q7 78 9 174.5t-6 180.5q-1 15 -6.5 26t-11.5 16.5t-13 9t-10 4.5t-4 1q5 13 14.5 18.5t30.5 2.5q55 -7 109 0q26 3 37.5 -2t13.5 -20q-2 0 -5 0.5t-10.5 -1t-14 -6t-12 -16.5t-7.5 -30q-5 -54 -4 -142q2 -22 30 -29.5t51 7
t14 43.5q-2 7 7 8q23 4 46 -15q11 -10 13 -22q6 -37 -19 -55.5t-65 -17.5q-31 1 -75 16q3 -84 10 -146q4 -48 36 -47l7 1q-8 -18 -21 -24t-36 -3q-37 6 -53 6.5t-57 -3.5q-32 -4 -43 26zM283 24q2 -1 4.5 -1.5t9.5 0t13 4t11 12.5t7 24q7 79 9 176t-5 182q-3 23 -14.5 37.5
t-21.5 17.5l-10 2q5 14 14.5 19t30.5 2q56 -7 109 0q26 3 37.5 -2t13.5 -20q-2 0 -4.5 0.5t-10.5 -1t-14 -6.5t-12 -16.5t-8 -29.5q-6 -82 -3 -181t11 -176q1 -16 6.5 -26.5t11 -14.5t12 -5t9 -0.5t4.5 1.5q-8 -18 -21 -24.5t-36 -2.5q-37 5 -53 5.5t-57 -3.5q-32 -3 -43 27
z" />
    <glyph glyph-name="i" unicode="i" horiz-adv-x="226" 
d="M3 29q1 0 4 -0.5t10 0t12.5 3.5t11 12.5t6.5 23.5q8 78 10 174t-6 179q-2 14 -7.5 25.5t-11.5 17t-12.5 9t-9.5 4.5t-4 1q5 13 14.5 18t30.5 3q55 -7 108 -1q26 3 37.5 -2t13.5 -20q-2 0 -5 0.5t-10.5 -1t-14 -6t-12 -16t-7.5 -29.5q-6 -80 -3 -178t11 -173q2 -26 13 -37
t20 -10l9 2q-7 -18 -20 -24.5t-36 -2.5q-37 5 -55 4.5t-58 -4.5q-15 -2 -24 4.5t-15 23.5z" />
    <glyph glyph-name="j" unicode="j" horiz-adv-x="422" 
d="M142 495q5 -2 13.5 -3.5t32 -4t43.5 -0.5t41 12.5t31 29.5q6 -1 15.5 -3t30 -12t33.5 -25q7 -7 11 -20q4 -8 5 -17q0 -3 5 -88q3 -55 4.5 -108.5t-11.5 -108.5t-41 -88q-27 -33 -63 -57t-71 -32q-59 -13 -113 16q-31 16 -42 28q-49 43 -51 85q-1 9 -1.5 63t-11.5 83
l19 19q4 -7 24 -7t44 2.5t50 -1.5q58 -9 55 -52q-1 1 -3 3.5t-9.5 6.5t-16.5 5.5t-23.5 -1.5t-29.5 -12q-37 -21 -32 -78q11 -77 113 -80q42 4 75.5 52t33.5 138q0 119 -5 172q-6 0 -12 -1q-93 -4 -135 67z" />
    <glyph glyph-name="k" unicode="k" horiz-adv-x="1109" 
d="M311 417q15 20 10 32.5t-19 18.5l-14 7q5 13 14.5 18t30.5 3q49 -6 130 2q14 1 21.5 -6t7.5 -19q-5 -1 -14 -3.5t-33.5 -15.5t-44.5 -33q-46 -45 -104 -96t-80 -72q14 -41 56 -60q37 -17 86 -57.5t84 -76t103 -107.5t102 -106q87 -89 216 -120q107 -26 157 7q38 26 14 80
q37 -4 53 -28q7 -13 7.5 -29t-13 -35t-39.5 -33q-54 -29 -126.5 -22.5t-150 37.5t-149.5 82q-76 53 -149.5 113.5t-152 142.5t-120.5 153q-16 28 -38 51q3 -97 11 -172q2 -25 13 -36.5t20 -9.5l9 1q-7 -17 -20 -23.5t-36 -3.5q-37 5 -53 5t-56 -4q-31 -4 -43 28
q2 0 4.5 -0.5t9.5 0t12.5 3.5t11 12.5t6.5 23.5q8 78 10 174t-6 179q-1 14 -6.5 25.5t-11.5 17t-13 9t-10 4t-4 0.5q5 14 14.5 19t30.5 2q49 -6 130 2q13 2 21 -5t8 -19q-2 0 -5 0.5t-10.5 -1t-14 -6t-12 -16t-7.5 -29.5q-5 -53 -4 -139q6 5 32 24.5t43 33t41 34.5t40 39z
" />
    <glyph glyph-name="l" unicode="l" horiz-adv-x="428" 
d="M-9 25q23 -5 42.5 9t26.5 63q12 86 11 271q0 53 -17 82.5t-50 21.5q0 2 0.5 4t3.5 7.5t8 9.5t15 6.5t24 1.5q73 -9 172 2q22 2 34.5 -6t13.5 -17l1 -9q-21 0 -42.5 -10.5t-34.5 -23.5q-15 -16 -20.5 -68t-5 -79t2.5 -44q-6 -89 10 -139q7 -19 24 -32.5t38 -18t43.5 4.5
t37.5 31q29 43 48.5 62.5t35.5 13.5q-19 -34 -23 -84q-7 -80 -7 -83q-80 4 -160 5q-137 0 -185 -4q-23 -2 -35 5t-12 10v8z" />
    <glyph glyph-name="m" unicode="m" horiz-adv-x="640" 
d="M438 25q0 1 5.5 0t14.5 1.5t17.5 6.5t14.5 14.5t7 24.5q1 69 -3 305q-2 -6 -10.5 -26.5t-14.5 -33.5q-28 -67 -65 -140t-43 -92q-3 -8 -16.5 -11t-25.5 -2l-12 1q-8 0 -13 5q-8 3 -10 9q-6 19 -42.5 92t-63.5 139q-3 8 -12.5 30.5t-13.5 31.5q-1 -125 1 -306
q0 -15 6.5 -25.5t14.5 -14.5t17 -6.5t14.5 -1.5t6.5 0q-7 -18 -18.5 -24.5t-31.5 -2.5q-33 5 -47 5.5t-51 -3.5q-31 -3 -40 25q0 1 5.5 0t14.5 1.5t17.5 6.5t14.5 14t6 25q1 40 -3 354q-11 52 -50 53q4 13 12.5 18t27.5 3q28 -4 96 -1q17 1 32 -21q19 -24 38.5 -68
t48.5 -123t39 -106q11 23 36.5 81.5t39.5 89t32 68t31 57.5q4 7 8 12h1q10 11 35 10q7 -1 19.5 -1.5t18 -1t15 0t21.5 2.5q22 3 32.5 -2t11.5 -21q-2 1 -6 2.5t-13.5 1t-17.5 -5t-14 -19.5t-7 -38q-1 -124 1 -345q1 -24 15.5 -35.5t29.5 -12.5q13 -1 14 0q-7 -18 -18.5 -24
t-31.5 -3q-33 6 -47 6.5t-50 -3.5q-32 -4 -41 24zM626 25v0v0z" />
    <glyph glyph-name="n" unicode="n" horiz-adv-x="533" 
d="M24 26q0 1 5.5 0t14.5 1.5t17.5 6.5t14.5 14t6 25q1 40 -3 354q-11 52 -50 53q4 13 12.5 18t27.5 3q49 -7 96 -1q8 1 14 1q19 4 26 -1q16 -9 35.5 -56.5t48 -120.5t55.5 -122q13 -23 27 -50q1 53 -1.5 159.5t-2.5 108.5q0 19 -6 31.5t-14 17.5t-15.5 7.5t-13.5 1.5h-6
q5 13 13.5 18.5t26.5 2.5q49 -7 97 0q50 7 53 -20q-3 1 -6.5 2t-12.5 0t-16 -6.5t-13 -20.5t-6 -39q-2 -200 2 -346q1 -26 19 -34q20 -2 46 13q4 2 3 -1q0 -3 -4 -12q-11 -29 -32 -44.5t-44.5 -16t-44.5 6t-35 17.5q-24 17 -56.5 85.5t-73 154t-76.5 131.5q-1 -124 1 -294
q0 -15 6.5 -25.5t14.5 -14.5t17 -6.5t14.5 -1.5t6.5 0q-7 -18 -18.5 -24.5t-31.5 -2.5q-33 5 -47 5.5t-51 -3.5q-31 -3 -40 25z" />
    <glyph glyph-name="o" unicode="o" horiz-adv-x="486" 
d="M288 0q-28 -8 -57 -7q-97 3 -158.5 71.5t-67.5 163.5q-2 44 6 86t27.5 81.5t55.5 70t85 44.5q31 10 63 9q97 -2 159.5 -69t69.5 -162q3 -46 -5 -89.5t-28.5 -84t-59 -71t-90.5 -43.5zM279 451q-22 10 -49 8q-49 -2 -81.5 -65.5t-31.5 -146.5q1 -73 27.5 -126.5
t72.5 -66.5q10 -2 21 -2q39 0 67.5 33t41.5 81t13 104q0 64 -21.5 112.5t-59.5 68.5z" />
    <glyph glyph-name="p" unicode="p" horiz-adv-x="468" 
d="M5 31q2 0 4.5 -0.5t9.5 0t13 3.5t11 12.5t7 23.5q7 78 9 174t-5 179q-2 14 -7.5 25.5t-11.5 17t-12.5 9t-10 4t-4.5 0.5q5 14 14.5 19t30.5 2q38 -4 136 2h16q73 6 116.5 2.5t79.5 -26.5q28 -18 41 -48t12 -58t-11 -52q-9 -25 -32 -50q-47 -53 -148 -44q-40 4 -62 20.5
t-17 51.5q4 25 36 35q25 8 26 -3q1 -1 0 -2q-7 -26 4.5 -39t32.5 -13q10 0 20 3q5 1 9 3q20 9 26.5 37t3.5 61q-3 24 -12 40t-24 24.5t-28 11.5t-31 5q-37 3 -60 -24t-27 -77v-3q-3 -142 11 -283q2 -16 7 -26.5t10.5 -14t12 -4.5t9 -0.5t4.5 0.5q-8 -17 -21 -23.5t-35 -3.5
q-37 5 -53.5 5t-56.5 -4q-31 -4 -43 28z" />
    <glyph glyph-name="q" unicode="q" horiz-adv-x="1118" 
d="M287 -3q-28 -8 -57 -7q-97 3 -158.5 71.5t-67.5 163.5q-2 44 6 86t27.5 81.5t55.5 70t85 44.5q31 10 63 9q97 -2 159.5 -69t69.5 -162q7 -103 -37 -180q34 -29 74.5 -70t96.5 -100.5t87 -91.5q82 -83 204 -111q100 -23 142 10q32 24 11 71q34 -4 48 -26q6 -12 7 -26.5
t-11.5 -32.5t-36.5 -30q-49 -27 -116 -21t-138 34.5t-138 75.5q-169 118 -294 247q-36 -26 -82 -37zM278 448q-22 10 -49 8q-49 -2 -81.5 -65.5t-31.5 -146.5q1 -73 27.5 -126.5t72.5 -66.5q10 -2 21 -2q46 1 78 45q-25 29 -45 57q-32 45 -39.5 76.5t0.5 41.5t19 7
q3 -1 3.5 -8t6 -23t18.5 -33q6 -9 10.5 -13.5t19.5 -15t38 -20.5q13 48 13 104q0 64 -21.5 112.5t-59.5 68.5z" />
    <glyph glyph-name="r" unicode="r" horiz-adv-x="1124" 
d="M13 30q1 0 4 -0.5t10 0t12.5 3.5t11 12.5t6.5 23.5q8 78 10 174t-6 179q-2 14 -7.5 25.5t-11.5 17t-12.5 9t-9.5 4.5l-4 1q5 13 14.5 18t30.5 3q41 -6 129 -1q3 1 5 1q14 1 50.5 3t45.5 2t32 -1t32.5 -4.5t24.5 -10.5t29 -18q32 -25 43 -69t6 -81.5t-19 -65.5
q-40 -85 -135 -50q0 -2 1 -6.5t13 -16t34 -21.5q35 -16 80 -53t77 -70t95 -99t93 -98q83 -84 204 -112q100 -22 143 10q31 25 10 72q34 -4 48 -26q7 -12 7.5 -26.5t-12 -32.5t-35.5 -30q-50 -27 -117 -21t-138 34.5t-138 75.5q-109 76 -218.5 174t-174.5 190
q-32 45 -39.5 76.5t0.5 41.5t19 7q2 -1 4.5 -10.5t12.5 -16t32 -2.5q20 4 32 35.5t12 71.5q0 29 -8.5 49t-24.5 29.5t-29.5 13.5t-31.5 6q-37 4 -60 -29t-27 -93q0 -3 -1 -5q-1 -132 11 -249q3 -26 13.5 -37t20.5 -10l9 2q-7 -18 -20 -24.5t-36 -2.5q-37 5 -53 4.5t-57 -4.5
q-30 -3 -42 28z" />
    <glyph glyph-name="s" unicode="s" horiz-adv-x="429" 
d="M384 497q-1 -3 -4 -8.5t-13.5 -19.5t-24.5 -24t-40 -18t-56 -7q-24 1 -48 13.5t-38 21t-21 3.5q-9 -7 -10 -17.5t7 -22.5t20 -24t29.5 -25.5t33.5 -24.5t34 -23q53 -33 95.5 -76t55.5 -85q39 -120 -65 -174q-47 -25 -98 -28.5t-91 11t-71 37.5t-44.5 50t-5.5 48
q6 18 17 29.5t21 15t21.5 4t16 0t6.5 -1.5q-1 -3 -1.5 -8.5t0 -20.5t3.5 -29t13 -30t25.5 -26.5t43 -16.5t64.5 -3q48 5 48 45q1 52 -68 112q-15 14 -33 26q-39 27 -66 48.5t-53 50t-36 54t-5 55.5t30 59q15 18 38 31.5t39 19t38.5 8.5t25.5 3h11q10 -18 29.5 -27.5
t40.5 -11t41 0t32 4.5z" />
    <glyph glyph-name="t" unicode="t" horiz-adv-x="460" 
d="M121 27q1 0 4 -0.5t10 0t12.5 3.5t11 12.5t6.5 23.5q8 78 9.5 174t-5.5 179v1q-5 16 -23.5 20.5t-39 -7t-28.5 -37.5q-11 -31 -5 -49.5t12.5 -26t8.5 -7.5q-41 -11 -61 47q-7 19 -10.5 48.5t-6.5 48t-10 22.5l15 22q18 -4 35.5 -5.5t28.5 -1.5t30.5 0.5t32.5 0.5h4
q7 0 56.5 1t68.5 0q18 0 25 -1q11 0 31.5 -0.5t31 -0.5t28.5 1.5t37 5.5l16 -22q-8 -4 -11 -22.5t-6.5 -48t-10.5 -48.5q-21 -58 -65 -47q2 1 4.5 2.5t8 8.5t8.5 15.5t3 24t-6 32.5q-9 26 -30 37.5t-40 7.5t-22 -20q-6 -81 -3 -178.5t10 -171.5q2 -17 7 -27.5t11 -14
t11.5 -4.5t9.5 -1q3 1 4 2q-7 -18 -20 -24.5t-36 -2.5q-37 5 -53 5.5t-57 -3.5q-31 -3 -42 26zM329 26v0v0z" />
    <glyph glyph-name="u" unicode="u" horiz-adv-x="515" 
d="M444 102q1 -27 -7 -45.5t-32 -37.5q-31 -25 -85.5 -34.5t-102.5 -6t-80 14.5q-48 17 -68.5 42t-17.5 52q2 60 2 162.5t-7 166.5q-3 24 -14.5 38.5t-21.5 17.5l-10 3q5 14 14.5 19.5t30.5 2.5q56 -7 111 -1q26 4 37.5 -1.5t13.5 -21.5q-2 1 -5 1t-10.5 -1.5t-14 -6
t-12.5 -17t-7 -30.5q-11 -113 2 -304q0 -1 1 -4q4 -58 93 -52q15 1 27 3t20.5 6t15 7t11 9.5t7 9.5t4 11.5t2.5 10.5t1.5 11t0.5 10q8 192 -2 281q-3 24 -14.5 39t-21.5 18l-10 2q5 14 14.5 19.5t30.5 2.5q56 -7 110 0q26 3 37.5 -2t13.5 -21q-2 0 -5 0.5t-10.5 -1t-14 -6.5
t-12.5 -17t-7 -30q-5 -57 -6 -177.5t-2 -142.5z" />
    <glyph glyph-name="v" unicode="v" horiz-adv-x="595" 
d="M225 472q-2 0 -4 0.5t-8 1t-10.5 -0.5t-11 -2.5t-8.5 -6t-4 -11.5t2 -18q55 -175 107 -299q6 -14 11.5 -14.5t13.5 14.5q15 35 60 136t57 129q7 19 5 31.5t-11 19t-18.5 9.5t-17.5 4h-8q15 37 48 32q47 -6 125 2q13 1 20.5 -6t7.5 -19q-2 0 -6 -0.5t-14.5 -3.5t-20 -8.5
t-21.5 -16.5t-20 -26q-65 -116 -141 -313q-1 -1 -1 -2q-6 -26 -3.5 -42.5t11 -25.5t17.5 -12.5t16 -4.5l8 -1q-10 -21 -39 -32t-60 -4q-23 4 -41.5 16.5t-31 26.5t-24 35t-17 36t-13.5 36.5t-11 29.5q-25 60 -56 143.5t-49 125.5q-9 23 -21.5 33.5t-19.5 9.5l-8 -2
q16 36 63 29q32 -5 51 -5.5t55 4.5q29 3 41 -28z" />
    <glyph glyph-name="w" unicode="w" horiz-adv-x="732" 
d="M190 180q78 185 96 237q4 13 37 11q33 1 39 -13q1 -2 42.5 -81t72.5 -153q11 -26 20 -49q13 54 38.5 166.5t30.5 135.5t-4 35.5t-21 13.5l-12 2q20 29 53 14q27 -11 49.5 -12t53.5 5q27 5 33 -26q-3 0 -7 -0.5t-15 -3.5t-20 -8t-18.5 -15.5t-13.5 -24.5
q-54 -200 -86 -345v-3q-2 -12 1 -21.5t8 -13.5t12.5 -7t10.5 -3h4q-10 -30 -38 -26q-37 4 -51 3.5t-48 -6.5q-20 -3 -31.5 3t-18.5 24h3.5t9 1.5t10 5.5t6.5 11t-1 18q-57 110 -108 224q-57 -155 -93 -221q-5 -12 -3 -21t7.5 -12t11.5 -5.5t10.5 -1.5t4.5 0
q-7 -18 -20 -24.5t-36 -2.5q-37 5 -52.5 5.5t-56.5 -2.5q-32 -4 -43 26h5t11 2.5t14 7t9.5 13.5t1.5 21q-1 3 -1 5q-7 27 -40 161t-46 184q-4 14 -13 24.5t-17.5 15.5t-19 7.5t-14.5 3t-6 0.5q7 26 48 24q8 -1 24 -2.5t23 -1.5t19.5 2.5t27.5 8.5q25 10 42 -16q-2 0 -5 -1
t-12 -4.5t-13.5 -9.5t-9.5 -16t0 -25q35 -144 77 -301h7q10 28 21 57z" />
    <glyph glyph-name="x" unicode="x" horiz-adv-x="519" 
d="M328 406q21 34 13 47.5t-28 13.5h-20q6 14 22 25t36 8q44 -6 104 0q13 1 21 -9t8 -22q-4 -1 -11 -3t-26 -14.5t-34 -33.5q-40 -53 -87 -114q-12 -17 -27 -39q18 -27 27 -41q49 -63 120 -146q19 -21 33.5 -34t19.5 -16l6 -3q-16 -36 -63 -28q-32 5 -51 5t-55 -4
q-29 -3 -41 28q2 0 4.5 0.5t8 3.5t8 8t1 14.5t-9.5 22.5q-9 14 -18 29l-4 6q-1 1 -1 2q-20 29 -47 68q-45 -63 -77 -105q-12 -16 -12.5 -26.5t6.5 -14t16 -4.5t16 0l8 1q-15 -36 -48 -31q-36 6 -109 2q-14 -1 -23 6.5t-9 19.5q1 0 2.5 -0.5t7 0.5t11.5 4.5t16.5 12
t21.5 21.5q36 42 83 100q13 18 52 68q-38 56 -63 93q-27 37 -68 94q-15 20 -30 33t-21.5 16.5t-7.5 3.5q16 35 63 28q32 -5 51 -5t55 4q29 3 41 -28q-2 0 -5.5 -1t-10.5 -5t-10.5 -9.5t-3 -15.5t7.5 -23q27 -44 66 -101q43 57 65 88z" />
    <glyph glyph-name="y" unicode="y" horiz-adv-x="894" 
d="M568 478q-2 0 -4 0.5t-8.5 1t-11.5 -0.5t-12 -3t-9.5 -6.5t-4 -11.5t2.5 -17q42 -116 85 -213q84 123 105 173q11 31 2.5 47t-24.5 20l-16 3q14 37 48 33q49 -6 129 3q14 1 21.5 -5.5t8.5 -18.5q-3 0 -6.5 -0.5t-14.5 -4t-21 -9t-22 -16.5t-20 -26q-59 -104 -180 -295
q-60 -103 -144.5 -208.5t-144.5 -160.5q-48 -44 -105.5 -73t-104.5 -32.5t-71 27.5q-14 21 -13 37t9.5 27t21.5 18t21.5 10t9.5 3q0 -32 11.5 -45.5t29 -12t39.5 6.5q56 16 129 81.5t129 148.5q65 96 85 143q9 35 -6 68q-28 59 -63 141.5t-55 124.5q-10 22 -23.5 32t-21.5 9
l-8 -1q16 35 67 29q39 -5 56 -5t59 5q32 3 45 -27z" />
    <glyph glyph-name="z" unicode="z" horiz-adv-x="447" 
d="M283 -1q-19 0 -99 1.5t-110 1.5q-14 0 -27 -1q-14 -1 -22.5 13t0.5 23q30 5 54 36q138 237 171 330q6 17 9 29q-11 1 -31.5 2.5t-29.5 1.5q-4 0 -18 1t-19.5 0.5t-17 -1t-17.5 -3t-13.5 -6.5t-12.5 -11.5t-8 -17.5q-11 -31 -5 -49.5t13 -26.5t9 -8q-42 -10 -62 48
q-7 19 -10.5 48t-6.5 48t-10 22l15 23q19 -4 36 -5.5t28 -1.5h31h32h5q82 1 131 2h2q3 0 38 1h18q16 1 34 3q13 1 23 -9.5t10 -23.5q-3 -1 -8.5 -4.5t-20 -20t-27.5 -39.5q-27 -50 -58 -112.5t-66.5 -137t-44.5 -92.5h30q5 0 26 -1t32 -0.5t27.5 3t27 9t16.5 17.5
q25 50 -14 77l-4 2q44 10 65 -44q7 -18 10.5 -45.5t7 -45.5t10.5 -21l-16 -21q-19 4 -37.5 5.5t-29.5 1.5t-32 -0.5t-34 -0.5z" />
    <glyph glyph-name="Oacute" unicode="&#xd3;" horiz-adv-x="759" 
d="M439 94q1 19 -10 43q-10 23 -36 59v1q-45 -60 -48 -96v-5q17 -5 40 -5q15 0 47 2q5 1 7 1zM165 255q3 -4 4 -9q7 -33 35.5 -47.5t64.5 -7.5t56 31q21 25 14 60q-6 31 -34 45q-28 15 -65 10q-36 -6 -58 -27q-21 -20 -17 -49v-6zM439 281q1 -8 3 -17q8 -24 26 -43.5
t38 -25.5q24 -8 53.5 -5.5t37.5 12.5q37 39 21 74q-16 36 -65 54q-49 19 -83 2q-15 -8 -23 -24q-6 -11 -8 -27zM393 750q104 -3 184 -44t124 -113q43 -71 43 -159t-43 -179q-1 -2 -2 -3q-3 -10 -4 -20q0 -9 4 -28l3 -21q4 -31 -6 -56q-15 -36 -52 -49q-13 -4 -29 -5
q-9 -1 -25 -1h-2q-33 0 -39 -6q-9 -8 -10 -17q-1 -6 4 -22l1 -4q0 -2 1 -3q1 -4 1 -8q3 -10 3 -18q1 -28 -19 -46q-29 -26 -130 -29q-40 -1 -62 1q-40 5 -68 23q-29 19 -34 49q-2 11 0 24l3 18v2q3 12 2 15q0 2 -1 3q-7 6 -38 9q-1 1 -5 1q-26 2 -39 6q-27 7 -43 25
q-13 17 -19 47q-3 15 -6 48q-1 14 -2 20q-3 34 -9 50q-1 2 -1 3q-2 4 -3 8l-1 1q-3 5 -4 10q-30 82 -27.5 159t37.5 140q40 70 115.5 113t179.5 55q4 1 8 0q5 2 10 1z" />
    <glyph glyph-name="oacute" unicode="&#xf3;" horiz-adv-x="531" 
d="M297 82q1 14 -7 31q-7 16 -25 42l-1 1q-32 -43 -34 -69v-4q12 -3 29 -3q10 0 33 2h5zM101 198q2 -3 3 -7q5 -24 25.5 -34.5t46.5 -5t40 22.5q15 18 10 42q-5 23 -25 33.5t-46 6.5t-42 -19q-15 -15 -12 -35v-4zM297 216q1 -6 3 -12q5 -18 18 -31.5t28 -18.5q17 -5 38 -3.5
t27 8.5q26 28 15 54q-12 25 -47 38.5t-59 0.5q-20 -9 -23 -36zM264 553q75 -3 132.5 -32.5t88.5 -80.5t31 -114t-31 -129q0 -1 -1 -2q-4 -11 0 -34q2 -10 2 -15q3 -22 -5 -40q-10 -27 -37 -35q-13 -5 -39 -5q-24 0 -29 -4q-6 -6 -7 -11t3 -17q4 -16 4 -24q1 -20 -13 -33
q-21 -19 -93 -21q-29 0 -45 1q-29 4 -49 17q-21 13 -24 35q-2 11 2 30v2q2 10 1 12q-6 5 -27 7h-4q-19 2 -28 5q-19 5 -31 18q-10 12 -14 33q-2 11 -4 35q-1 10 -1 14q-3 24 -7 36q0 1 -1 2l-2 6v1q-2 3 -3 7q-45 121 7 214q59 104 212 121h5q4 1 7 1z" />
    <glyph glyph-name="Sacute" unicode="&#x15a;" 
d="M681 704q-2 -5 -5.5 -13t-19.5 -28.5t-36.5 -36t-58.5 -27t-83 -9.5q-36 1 -71 19.5t-56.5 31t-30.5 5.5q-14 -11 -15 -26.5t11 -33t29 -35.5t43 -37.5t49.5 -36t51.5 -33.5q76 -48 138 -112t85 -126q19 -62 17 -126t-34 -131t-89.5 -119t-131 -83t-147.5 -39.5
t-136 -6.5t-119 13q-78 15 -140.5 65t-92.5 134q-20 68 -7.5 134.5t45.5 107.5q117 147 305 141q-7 -1 -18 -3.5t-42 -13.5t-59 -26.5t-60 -44.5t-52 -64q-61 -105 -16 -197q21 -44 64 -77t100 -48.5t121.5 -15t135 22.5t133.5 64q41 28 59 73.5t11 96t-43 105t-97 96.5
q-40 28 -71 51t-63 52t-52.5 55t-36 56t-17 58.5t9.5 60t37 62.5q24 27 55.5 46.5t60.5 28t54 13t40 4.5h15q15 -26 44 -40.5t60 -16.5t60 -0.5t48 6.5z" />
    <glyph glyph-name="sacute" unicode="&#x15b;" horiz-adv-x="401" 
d="M355 498q-2 -4 -4.5 -9.5t-13 -19t-24 -23.5t-39 -18t-55.5 -6q-23 1 -47 13t-38 20.5t-20 3.5q-9 -7 -9.5 -17.5t7 -22t19 -23.5t29 -25t33 -24t33.5 -23q51 -31 92.5 -74t56.5 -84q23 -57 4.5 -128t-75.5 -122q-38 -35 -87 -56t-98 -26.5t-91 -4t-79 8.5
q-52 10 -93.5 43.5t-61.5 89.5q-14 45 -5.5 89.5t30.5 71.5q78 98 203 94q-4 -1 -11.5 -2.5t-28.5 -9t-39.5 -17.5t-39.5 -29.5t-35 -43.5q-40 -69 -11 -131q24 -49 84 -74.5t138 -16.5t147 56q37 24 46.5 67.5t-14.5 92.5t-78 87q-39 26 -65.5 47.5t-52 49.5t-35 53
t-5 54.5t28.5 57.5q25 29 62.5 44.5t62.5 16.5l26 1q9 -18 28.5 -27.5t40 -10.5t40 0t31.5 4z" />
    <glyph glyph-name="Omegatonos" unicode="&#x38f;" horiz-adv-x="740" 
d="M391 352q2 23 -30 67v1q-29 -39 -31 -63v-3q17 -6 57 -2h4zM212 458l2 -6q5 -22 23.5 -31.5t42.5 -4.5t37 21t9 38q-5 21 -23 30.5t-42 6.5q-24 -4 -38 -18q-14 -13 -12 -32q1 -2 1 -4zM391 475q1 -5 3 -11q5 -16 16.5 -28.5t25.5 -17.5q16 -4 35 -2.5t25 7.5
q23 26 13 49q-10 24 -42.5 36t-54.5 0q-18 -9 -21 -33zM501 77q21 -7 42 -13q24 -7 40 -11t28.5 -2t17 3t17.5 8.5t17 10.5q17 9 39 -2.5t23 -47.5q1 -18 -7 -30t-20 -20.5t-15 -13.5q-5 -8 -2.5 -30.5t-5.5 -40.5q-13 -27 -36 -30t-45 22q-11 12 -18 29t-17 29t-34 22
q-57 25 -149 59q-91 -43 -156 -79q-24 -13 -34 -28.5t-10 -27t-9 -23.5t-31 -20q-21 -7 -44.5 17.5t-16.5 54.5q4 15 -1 24t-13.5 13.5t-17.5 9.5t-13.5 18.5t-0.5 35.5t21.5 30t41.5 2q6 -1 19.5 -5.5t20 -5.5t18.5 -0.5t26 5.5q32 12 67 26q-38 13 -69 22q-27 8 -45 4
t-25.5 -11.5t-23 -10t-36.5 8.5q-12 6 -17 24t1.5 38.5t23.5 30.5t18.5 23t-4.5 23.5t-1 26.5t28 31q20 12 37 5.5t30 -27.5q3 -6 9.5 -18.5t10 -18t12.5 -13.5t22 -14q69 -34 157 -67q64 31 125 64q22 12 36 20.5t21.5 19l10 14t6 18.5t4.5 20q4 10 14 18.5t28.5 8
t36.5 -17.5q14 -12 16.5 -26t0.5 -28.5t-1 -20.5q2 -9 20.5 -23.5t24.5 -32.5q10 -27 -4 -46.5t-47 -16.5q-14 1 -27.5 5.5t-22 7.5t-22.5 2.5t-33 -8.5q-24 -10 -57 -24zM361 784q69 -3 121.5 -30t81.5 -74q28 -46 28 -104t-29 -118q0 -1 -1 -2q-4 -11 0 -31q2 -10 2 -14
q3 -21 -4 -37q-10 -24 -34 -32q-12 -4 -36 -4q-22 0 -26 -4q-6 -6 -7 -10.5t3 -15.5q4 -14 4 -21q1 -19 -13 -31q-19 -17 -85 -19q-26 -1 -41 1q-26 3 -45 15t-22 32q-1 11 2 28v1q2 10 1 12q-5 4 -25 6h-3q-17 2 -26 4q-18 5 -28 17q-9 11 -13 31q-2 10 -4 31q-1 10 -1 13
q-2 23 -6 33q-1 1 -1 2l-2 6q-2 3 -3 7q-41 111 7 196q53 95 193 111h5q4 1 7 1z" />
    <glyph glyph-name="Alpha" unicode="&#x391;" horiz-adv-x="832" 
d="M401 165q-28 2 -47 16t-25.5 32t-6 37t7.5 31q17 29 47 43.5t58.5 13.5t56.5 -7q-36 98 -75 189q-8 18 -12.5 22.5t-11.5 -3t-18 -33.5q-1 -1 -1 -2q-22 -51 -83 -190.5t-77 -179.5q-30 -74 44 -90l28 -3q-20 -54 -68 -48q-112 14 -175 8q-19 -2 -30.5 9.5t-11.5 28.5h7
t19.5 2t28 8t30 21t27.5 36q93 169 202 457q0 1 1 3q5 21 5.5 38t-2 29t-8.5 22t-12 15.5t-15 10t-14.5 6t-13.5 2.5t-9 1h-3q13 32 55.5 47.5t88.5 6.5q32 -6 59.5 -23.5t45.5 -38t35 -51t25.5 -52t20 -53t16.5 -43.5q37 -86 83 -207t72 -182q9 -21 20 -35t19.5 -18.5
t16 -6.5t11.5 -1l5 1q-10 -24 -34 -35t-56 -6q-52 7 -75 6.5t-80 -6.5q-42 -5 -59 40q2 0 4.5 -0.5t11.5 -1.5t15.5 0t16 4t12.5 9.5t6 16.5t-4 26q-14 44 -25 77q-24 66 -40 84.5t-57 16.5q-65 -3 -57 -77z" />
    <glyph glyph-name="Beta" unicode="&#x392;" horiz-adv-x="696" 
d="M244 200q10 -67 44 -103t85 -32q22 2 38.5 5t37.5 12t35 22.5t23.5 38t9.5 56.5q1 54 -18 96.5t-50 47.5q-20 4 -32 8q-46 12 -70 42.5t-12 70.5q0 3 4 -2t12 -13.5t18.5 -17t28 -13t37.5 -1.5q29 5 47 42t18 85q0 29 -9.5 50t-22.5 33t-33 20t-36 10.5t-37 4.5
q-54 4 -87 -35t-39 -111v-4q-4 -140 8 -312zM11 38q2 0 6 -1t14.5 0t18.5 5.5t16 18t10 34.5q10 113 13 252t-8 260q-2 21 -10 37.5t-17 24.5t-18.5 13t-14 6t-6.5 1q8 19 21.5 27t43.5 4q55 -7 190 1q3 0 6 1h20q15 1 47 2.5t43 2t35 1t33.5 -0.5t28 -2.5t28.5 -4.5
t24 -7.5t26 -11t25 -14.5q36 -23 55 -60t20.5 -73.5t-6.5 -70t-24 -54.5q-33 -45 -83 -66q53 -18 98 -72q28 -32 34 -79t-12.5 -95t-59.5 -80q-20 -16 -44.5 -26t-45 -14.5t-57.5 -5.5t-60 0t-75 4t-81 4h-3q-11 0 -40 1t-43 1.5t-38.5 -0.5t-47.5 -4q-44 -5 -62 41z" />
    <glyph glyph-name="Gamma" unicode="&#x393;" horiz-adv-x="681" 
d="M17 33q13 -5 28 -2t29 11t26 32.5t18 62.5q19 123 19 372q-1 48 -5 86q-9 47 -31.5 70t-59.5 14q0 2 1 5.5t5 11.5t11.5 13.5t22.5 9t35 1.5q51 -7 269 -3q32 0 82.5 2.5t84.5 5.5l34 2q-2 -4 -4 -12.5t0.5 -36t14.5 -57.5q6 -14 18.5 -27.5t24 -21t19.5 -14t7 -8.5
q-2 -7 -12.5 -10.5t-20.5 -4.5h-10q-6 1 -17 3.5t-40.5 18.5t-52.5 41q-38 41 -97 52t-91 -20q-23 -24 -32.5 -123.5t-7.5 -217.5q4 -88 10 -154q2 -12 3 -24v-2q4 -25 13 -41.5t19.5 -22.5t21 -8t17.5 -1q6 1 7 2q-21 -49 -94 -38q-51 8 -72 9t-69 -3q-34 -5 -57 -7
q-64 0 -67 34zM376 38v0v0z" />
    <glyph glyph-name="Delta" unicode="&#x394;" horiz-adv-x="807" 
d="M315 563q0 1 1 3q5 21 5.5 38t-2 29t-8.5 22t-12 15.5t-15 10t-14.5 6t-13.5 2.5t-9 1h-3q13 32 55.5 47.5t88.5 6.5q32 -6 59.5 -23.5t45.5 -38t35 -51t25.5 -52t20 -53t16.5 -43.5q34 -80 80 -201.5t75 -187.5q24 -54 47 -70q-4 -15 -20.5 -25.5t-44.5 -5.5
q-48 8 -99 5q-78 -6 -158 -5q-24 0 -65.5 1t-96 3t-85.5 3q-2 0 -3 -1h-57t-82 -1q-20 -1 -32 13t-12 32q2 -1 4.5 -1.5t10.5 1.5t16.5 7.5t21 20t23.5 35.5q93 169 202 457zM214 134q-10 -29 -5.5 -37t26.5 -10q237 -18 298 -7q42 8 36 27q-3 8 -6 17q-72 224 -146 396
q-8 18 -12.5 22.5t-11.5 -3t-18 -33.5q-1 -2 -2 -3q-18 -42 -80 -183t-79 -186z" />
    <glyph glyph-name="Epsilon" unicode="&#x395;" horiz-adv-x="817" 
d="M23 30q12 -5 27.5 -2t29 11t25.5 32.5t18 61.5q19 124 20 390q0 77 -24 120t-72 32q0 2 0.5 5t5 11.5t11.5 14t22 9t35 0.5q51 -6 268 -2q33 0 83 2.5t84 5.5l34 2q-2 -4 -3.5 -12.5t0.5 -36t14 -57.5q6 -14 18.5 -27.5t24 -21t19.5 -13.5t7 -9q-2 -7 -12.5 -10.5
t-20.5 -4.5h-10q-6 1 -17 3.5t-40 18.5t-52 41q-38 41 -97 51.5t-91 -19.5q-39 -38 -36.5 -108.5t44.5 -108.5q29 -25 69.5 -33t66 11t12.5 62q-3 9 11 11q28 4 59 -17q23 -16 26 -37q8 -52 -28 -79t-94 -25q-33 1 -75 12t-68 22l-25 10q-2 -14 -2.5 -37t2.5 -77t13 -86
q9 -27 60.5 -45.5t113 -24t121 8.5t81.5 46q40 59 69.5 87.5t52.5 24.5q-4 -7 -10.5 -20t-18 -51t-14.5 -74q-10 -103 -10 -105q-278 5 -393 6q-197 3 -268 -2q-63 -1 -66 33z" />
    <glyph glyph-name="Zeta" unicode="&#x396;" horiz-adv-x="621" 
d="M392 -7q-28 0 -143.5 2t-159.5 2q-20 0 -38 -1q-20 -2 -32 18.5t0 32.5q5 1 13 3.5t28.5 16t35.5 33.5q73 124 148 265t100 211q9 24 12 42l-45 3t-42 2q-7 1 -26.5 1.5t-28 0.5t-24.5 -1t-24.5 -4.5t-20 -9.5t-18.5 -16.5t-11 -25.5q-16 -44 -7.5 -71t18.5 -38t13 -11
q-60 -16 -89 68q-10 27 -15 69.5t-9.5 69.5t-14.5 32l21 32q27 -5 52.5 -7.5t41 -2.5t44 0.5t46.5 0.5h7q118 1 189 2q1 0 2 1q5 0 55 1q14 0 26 1q24 1 50 3q19 2 33 -13.5t14 -33.5q-4 -2 -12 -7t-29 -28.5t-39 -56.5q-39 -73 -84 -163t-96.5 -198t-63.5 -132q21 -1 44 -1
q8 0 30 -1t36.5 -1.5t35.5 1.5t35 6t27.5 13t20.5 23q34 69 -16 107l-10 6q63 15 94 -64q10 -25 15 -65t9.5 -65.5t15.5 -30.5l-22 -29q-28 4 -54.5 6.5t-42.5 2.5t-46 -0.5t-49 -0.5z" />
    <glyph glyph-name="Eta" unicode="&#x397;" 
d="M20 34q2 -1 6 -1.5t14.5 0t18.5 5.5t16 18.5t10 34.5q11 114 13.5 254.5t-8.5 262.5q-2 21 -10 37.5t-17 25t-18.5 13.5t-14.5 6t-6 1q7 19 21 27t45 4q80 -10 159 -1q37 5 54 -2.5t20 -29.5q-3 0 -7 0.5t-15.5 -1.5t-20.5 -8.5t-17.5 -23.5t-11.5 -43q-7 -80 -5 -208
q3 -32 43.5 -42.5t74 10.5t20.5 64q-3 9 11 11q30 4 61 -19q22 -16 25 -36q8 -52 -28.5 -79.5t-95.5 -25.5q-44 1 -109 22q5 -121 14 -213q3 -23 10 -38.5t16 -21t17.5 -7t14.5 -0.5q4 1 5 2q-11 -27 -30 -36t-52 -4q-55 8 -78 9t-83 -5q-46 -5 -62 38zM423 32q3 -1 7 -1.5
t14 0t18.5 5.5t16 18.5t9.5 34.5q11 115 14 257t-8 264q-2 22 -10 38.5t-17.5 24.5t-18.5 13.5t-14 6.5l-6 1q7 20 21 27.5t44 3.5q81 -10 160 -1q37 5 54 -2.5t20 -29.5q-3 0 -7.5 0.5t-15.5 -1.5t-20 -8.5t-17.5 -24t-11.5 -43.5q-8 -119 -4 -263.5t15 -255.5
q3 -24 10 -39.5t16 -21t17.5 -7t14.5 -0.5l5 1q-11 -26 -30 -35.5t-52 -4.5q-55 9 -78 9.5t-83 -5.5q-46 -5 -63 39zM325 32v0v0z" />
    <glyph glyph-name="Theta" unicode="&#x398;" horiz-adv-x="697" 
d="M417 -14q-41 -11 -83 -10q-94 3 -167.5 51.5t-113.5 124t-45 164.5q-4 63 8 124t39.5 118t80 101t122.5 64q46 15 92 14q94 -2 168.5 -49.5t115 -122t47.5 -163.5q4 -66 -7.5 -129t-41 -121.5t-85 -102.5t-130.5 -63zM359 243q-30 2 -50.5 15.5t-27.5 32t-6.5 37
t8.5 31.5q21 33 61.5 49t79.5 15t67 -13q17 -8 30 -23q-2 89 -33.5 156t-84.5 95q-32 14 -71 12q-46 -3 -84 -46.5t-59 -113t-19 -147.5q1 -106 39 -183t104 -96q15 -3 31 -3q69 1 112.5 65.5t58.5 163.5q0 17 -10.5 29t-27.5 16.5t-31.5 6.5t-29.5 1q-25 -1 -40 -11.5
t-18.5 -25.5t-3.5 -29t3 -24z" />
    <glyph glyph-name="Iota" unicode="&#x399;" horiz-adv-x="355" 
d="M36 37q3 -1 7 -2t14 0t18.5 5.5t16 18t9.5 34.5q11 114 14 254t-8 261q-3 21 -10.5 37.5t-17 24.5t-18.5 13t-15 7l-5 1q7 19 21 26.5t44 3.5q81 -10 159 0q37 4 54 -3t19 -30q-2 1 -6.5 1.5t-15.5 -1.5t-20 -8.5t-17.5 -24t-11.5 -42.5q-8 -118 -4 -260.5t15 -252.5
q2 -24 9.5 -39t16.5 -20.5t17 -7t14 -0.5l6 1q-11 -26 -30 -35t-52 -4q-54 7 -80.5 7t-85.5 -7q-21 -2 -34 7.5t-23 34.5z" />
    <glyph glyph-name="Kappa" unicode="&#x39a;" horiz-adv-x="1638" 
d="M470 600q15 16 16.5 30.5t-6 24t-17.5 16.5t-19 11l-8 3q7 19 21 27t45 4q72 -9 191 3q21 2 32 -8.5t11 -28.5q-8 -1 -21 -4.5t-49 -23t-65 -48.5q-68 -66 -154 -141.5t-117 -106.5q21 -60 82 -88q45 -20 95 -57.5t108 -93t105.5 -105t121.5 -128t122 -127.5
q117 -119 291 -170q146 -42 232 -9q83 31 53 117q-3 6 -6 13q6 0 16 -2t30.5 -12.5t31.5 -25.5q9 -14 10.5 -31.5t-4.5 -37t-24 -39.5t-47 -36q-80 -42 -187.5 -33t-221 55t-219.5 121q-81 57 -163.5 122.5t-170 144.5t-164 167.5t-124.5 168.5q-24 41 -55 74
q4 -143 15 -252q2 -24 9.5 -39.5t16.5 -20.5t17.5 -7t13.5 -1t6 2q-11 -27 -30 -36t-52 -4q-55 7 -79 7t-83 -7q-45 -4 -63 42q2 0 6 -1t14.5 0t19 5.5t16 18t9.5 34.5q11 115 14 256t-8 264q-2 21 -10 37.5t-17.5 25t-18.5 13.5t-15 6l-6 1q8 20 22 27.5t44 3.5
q72 -9 191 3q21 2 32.5 -8t11.5 -28q-3 1 -7.5 1.5t-15.5 -2t-20 -9t-18 -24t-11 -42.5q-7 -79 -6 -205q9 7 47.5 36t63 49t60 51t59.5 57zM320 28v0v0z" />
    <glyph glyph-name="Lambda" unicode="&#x39b;" horiz-adv-x="832" 
d="M513 33q2 0 4.5 -0.5t11.5 -1.5t15.5 0t16 4t12.5 9.5t6 16.5t-4 26q-81 253 -158 433q-8 18 -12.5 22.5t-11.5 -3t-18 -33.5q-1 -1 -1 -2q-22 -51 -83 -190.5t-77 -179.5q-30 -74 44 -90l28 -3q-20 -54 -68 -48q-112 14 -175 8q-19 -2 -30.5 9.5t-11.5 28.5h7t19.5 2
t28 8t30 21t27.5 36q93 169 202 457q0 1 1 3q5 21 5.5 38t-2 29t-8.5 22t-12 15.5t-15 10t-14.5 6t-13.5 2.5t-9 1h-3q13 32 55.5 47.5t88.5 6.5q32 -6 59.5 -23.5t45.5 -38t35 -51t25.5 -52t20 -53t16.5 -43.5q37 -86 83 -207t72 -182q9 -21 20 -35t19.5 -18.5t16 -6.5
t11.5 -1l5 1q-10 -24 -34 -35t-56 -6q-52 7 -75 6.5t-80 -6.5q-42 -5 -59 40z" />
    <glyph glyph-name="Mu" unicode="&#x39c;" horiz-adv-x="893" 
d="M606 33q0 1 8 0t21 3t25 9.5t21.5 20.5t9.5 36q3 99 -4 441q-3 -8 -15.5 -38t-20.5 -49q-41 -96 -94 -202t-63 -134q-4 -12 -24 -16.5t-37 -2.5l-18 1q-10 1 -18 7q-11 5 -14 14q-9 27 -61.5 133t-93.5 203q-4 10 -17.5 42.5t-19.5 46.5q-1 -181 2 -444q0 -22 9 -37
t21 -21t25 -9.5t21 -2t9 0.5q-10 -27 -27 -36t-46 -4q-48 8 -68 9t-73 -5q-45 -6 -59 35q1 1 9 0t20.5 2.5t25 9.5t21.5 21t9 36q1 118 1 163t-2.5 185.5t-3.5 165.5q-1 73 -54 76l-18 -1q6 19 18.5 27t39.5 4q40 -6 139 -1q24 1 47 -31q27 -34 55 -98t70.5 -178.5
t57.5 -153.5q15 34 52 118.5t57 128.5t47 98.5t45 82.5q6 12 11 18q1 0 1 1v0q15 15 51 13q11 0 29 -1.5t25.5 -1.5t21.5 0.5t31 2.5q33 5 48 -2.5t17 -29.5q-3 1 -8.5 3t-20 1.5t-25.5 -7.5t-20.5 -28t-9.5 -55q-2 -180 2 -500q0 -22 9 -37t21 -20.5t25 -9.5t21 -2.5t8 0.5
q-9 -26 -26 -35.5t-46 -4.5q-48 8 -68.5 9t-72.5 -5q-45 -6 -59 35z" />
    <glyph glyph-name="Nu" unicode="&#x39d;" horiz-adv-x="781" 
d="M50 35q1 1 9 0t20.5 2.5t25 9t21.5 20.5t9 36q1 119 1 163.5t-2.5 185t-3.5 164.5q0 27 -7.5 44t-18 23.5t-21.5 8.5t-18 1l-7 -1q6 19 18.5 26.5t38.5 3.5q71 -10 140 0q12 1 21 1q27 5 37 -1q22 -14 51 -82.5t70 -174t81 -176.5q18 -33 38 -73q1 77 -2.5 231t-3.5 158
q0 26 -8.5 44.5t-20 25.5t-23 10.5t-19.5 3.5l-8 -1q7 19 19 27t39 4q71 -10 140 -1q35 5 54.5 -1t21.5 -27q-3 1 -8 2.5t-18.5 0t-23.5 -9t-19 -29.5t-9 -57q-3 -290 4 -502q1 -20 6.5 -30.5t19.5 -16.5q31 -5 67 17q6 4 5 0q0 -3 -5 -17q-17 -44 -47.5 -66t-64.5 -22.5
t-64 8.5t-51 25q-27 20 -63.5 87.5t-69 143t-78.5 164.5t-88 142q0 -179 3 -426q0 -21 9 -36.5t21 -21t24.5 -9t20.5 -2.5t9 0q-10 -26 -26.5 -35t-45.5 -4q-48 8 -68 9t-73 -5q-45 -6 -59 35z" />
    <glyph glyph-name="Xi" unicode="&#x39e;" horiz-adv-x="637" 
d="M468 581q-164 12 -307 2q-19 -1 -32.5 -8t-20.5 -16t-14 -17.5t-18.5 -13t-28.5 -2.5q-19 3 -28 34.5t7 56.5q11 14 8.5 26.5t-10.5 21t-8.5 24.5t13.5 39q12 18 28.5 17.5t32.5 -16.5q36 -34 78 -39q122 -15 285 -6q12 1 22 2t18 2.5t13.5 2.5t11.5 4.5t8.5 4.5t7.5 6
t6 6.5t6.5 8.5t7.5 9q6 8 17.5 11.5t25.5 -5t22 -31.5q5 -23 2.5 -32.5t-10 -23t-8.5 -19.5q-1 -9 7.5 -30t7.5 -39q-3 -29 -20.5 -40t-43.5 5q-12 7 -25 22t-26 23t-35 10zM424 319q-115 9 -231 1q-24 -2 -38.5 -12t-27 -17.5t-33.5 -4.5q-15 2 -22.5 27.5t5.5 45.5
q9 11 7 21t-8.5 17t-7 20t10.5 31q10 14 23 13.5t26 -12.5q31 -29 59 -33q122 -15 233 -8q15 1 26 3t17 3.5t12.5 6.5t8.5 7.5t8 10.5t8 11q6 6 15 8.5t20 -4t17 -25.5q4 -18 2.5 -25.5t-7.5 -18.5t-7 -16q-1 -7 6 -23.5t5 -31.5q-1 -23 -15.5 -32t-35.5 4q-4 3 -16.5 11.5
t-17.5 11t-16.5 6t-25.5 4.5zM472 10q-57 4 -147 5t-177 -4q-23 -2 -37 -11.5t-18 -19.5t-15.5 -17t-32.5 -4q-19 2 -28 33.5t7 56.5q11 15 8.5 27t-10.5 20.5t-8.5 24.5t13.5 39q12 18 28.5 17.5t32.5 -15.5q4 -4 13 -14t13.5 -13.5t14.5 -8t22 -6.5q134 -16 305 -6
q22 1 36 3t24 8t13 8t11.5 14t11.5 16q7 8 18 11t25 -5.5t22 -31.5q5 -22 3 -32t-9.5 -23.5t-9.5 -19.5q-1 -8 7.5 -29t7.5 -40q-3 -29 -20.5 -40t-43.5 5q-12 8 -23 21.5t-22.5 21t-34.5 9.5z" />
    <glyph glyph-name="Omicron" unicode="&#x39f;" horiz-adv-x="697" 
d="M417 -14q-41 -11 -83 -10q-94 3 -167.5 51.5t-113.5 124t-45 164.5q-4 63 8 124t39.5 118t80 101t122.5 64q46 15 92 14q94 -2 168.5 -49.5t115 -122t47.5 -163.5q4 -66 -7.5 -129t-41 -121.5t-85 -102.5t-130.5 -63zM403 638q-32 14 -71 12q-46 -3 -84 -46.5t-59 -113
t-19 -147.5q1 -106 39 -183t104 -96q15 -3 31 -3q57 1 98 48.5t60 117t19 150.5q0 92 -31.5 162t-86.5 99z" />
    <glyph glyph-name="Pi" unicode="&#x3a0;" horiz-adv-x="733" 
d="M1 40q3 -1 6.5 -2t13.5 0t17.5 5.5t15 18t9.5 34.5q10 114 13 254t-8 261q-2 21 -9.5 37.5t-16.5 24.5t-17 13t-14 6l-6 2q7 19 20 26.5t42 3.5q36 -4 132 -4q6 1 12 1q115 1 310 -1h8q76 -2 117 4q35 4 51.5 -3t18.5 -30q-3 1 -7 1.5t-14.5 -2t-19 -9t-16.5 -23.5
t-11 -42q-8 -118 -4 -261t15 -252q2 -24 9 -39t15.5 -20.5t16.5 -7t13 -0.5l5 1q-10 -26 -28 -35t-50 -4q-51 7 -76 7t-82 -7q-20 -2 -32.5 7.5t-21.5 34.5q2 -1 6 -2t14 0t17.5 5.5t15 18t9.5 34.5q10 114 13 254t-8 261q0 5 -1 10q-37 0 -133 1.5t-140 0.5q0 -3 -1 -7
q-8 -118 -4 -261t15 -252q2 -24 9 -39t15 -20.5t16 -7t13 -0.5l6 1q-11 -26 -28.5 -35t-49.5 -4q-51 7 -76 7t-81 -7q-20 -2 -32.5 7.5t-21.5 34.5z" />
    <glyph glyph-name="Rho" unicode="&#x3a1;" horiz-adv-x="723" 
d="M50 33q2 -1 6 -2t14.5 0t18.5 5.5t16 18.5t10 35q11 114 14 255t-8 263q-3 21 -11 37.5t-17 25t-18.5 13.5t-14.5 6t-6 1q7 20 21 27.5t45 3.5q56 -7 199 2q16 1 24 1q12 0 46 1.5t43 2t35 1t33.5 -0.5t27 -2.5t28.5 -4.5t24 -7.5t26.5 -11t24.5 -14.5q41 -27 60 -70.5
t17.5 -84.5t-15.5 -77t-47 -74q-69 -77 -217 -64q-59 6 -91.5 30t-24.5 76q4 33 48 49q35 13 42 1q2 -3 1 -7q-11 -38 5.5 -57t48.5 -19q14 1 30 4q6 2 13 4q29 14 38.5 55.5t4.5 89.5q-4 35 -17.5 59t-35 36t-41 17t-45.5 7q-54 4 -88 -35.5t-40 -112.5v-4q-5 -209 16 -416
q2 -23 9.5 -38.5t16.5 -21t17.5 -7t13.5 -0.5l6 1q-11 -26 -30 -35t-52 -4q-55 7 -78.5 7t-83.5 -7q-44 -5 -62 42z" />
    <glyph glyph-name="Sigma" unicode="&#x3a3;" horiz-adv-x="621" 
d="M230 620q36 -45 67 -95.5t53.5 -93.5t24.5 -47q1 -1 1 -2q4 -13 -48.5 -118t-99.5 -164q-5 -7 -9 -13q42 -1 94 -2q8 0 30 -1t36.5 -1.5t35.5 1.5t35 6t27.5 13t20.5 23q34 69 -16 107l-10 6q63 15 94 -64q10 -25 15 -65t9.5 -65.5t15.5 -30.5l-22 -29q-28 4 -54.5 6.5
t-42.5 2.5t-46 -0.5t-49 -0.5q-28 0 -143.5 2t-159.5 2q-20 0 -38 -1q-20 -2 -32 18.5t0 32.5q2 1 6.5 2t16 6.5t22.5 13t24.5 22t23.5 33.5q25 46 45 79t30 46.5t37.5 46.5t42.5 53q-14 18 -23.5 31t-19.5 27.5t-15.5 22t-14 22t-12 20.5t-14 24.5t-14.5 26t-18 33.5
t-22 40q-15 29 -39 48t-37 23.5t-16 4.5q-12 13 0 32.5t32 18.5t43 -2h85h14.5h17.5h14h158q19 1 49 0t46 -0.5t42.5 2.5t54.5 7l23 -30q-11 -5 -16 -30.5t-10 -65.5t-15 -65q-30 -79 -93 -64q3 1 7 3.5t13 12.5t14 22t4 32t-13 43q-7 14 -20 23t-27.5 13t-35.5 6t-35 1.5
t-36 -1.5t-31 -1q-48 0 -84 1q3 -5 7 -10z" />
    <glyph glyph-name="Tau" unicode="&#x3a4;" horiz-adv-x="665" 
d="M176 34q2 -1 6 -2t14.5 0t18.5 5.5t16 18t10 34.5q11 114 13.5 254t-8.5 261v2q-7 23 -34 29.5t-57 -10.5t-42 -53q-9 -26 -9.5 -48t4.5 -35t12 -22.5t12 -13t6 -3.5q-61 -16 -91 68q-9 28 -14 71t-10 70.5t-15 32.5l22 32q27 -5 52.5 -7.5t41 -2.5t44.5 0.5t48 0.5h5
q11 0 83 1.5t100 0.5q26 -1 36 -2q16 0 46.5 -0.5t46 -0.5t41.5 2.5t54 7.5l23 -32q-11 -5 -16 -32.5t-10 -70.5t-15 -71q-31 -84 -95 -68q3 1 6.5 3.5t11.5 12.5t13 23t4.5 35t-9.5 48q-13 37 -44 54t-58 10.5t-32 -29.5q-9 -118 -4.5 -260t15.5 -251q6 -67 50 -67
q10 -1 12 1q-11 -26 -30 -35t-52 -4q-54 8 -77 8.5t-83 -4.5q-46 -5 -62 38zM480 31v0v0z" />
    <glyph glyph-name="Upsilon" unicode="&#x3a5;" horiz-adv-x="1026" 
d="M564 693q-2 0 -5 0.5t-12.5 1.5t-16.5 -0.5t-17 -4t-13.5 -9t-6.5 -16.5t4 -26q60 -166 122 -305q121 176 151 248q10 28 9 47t-11.5 29.5t-22 16.5t-21.5 7l-9 2q21 52 69 46q70 -8 186 4q20 2 31 -7.5t11 -25.5q-3 -1 -8.5 -1.5t-21.5 -5.5t-30 -13t-31.5 -24
t-28.5 -37q-85 -150 -258 -424q-87 -148 -208.5 -299.5t-207.5 -231.5q-51 -46 -112 -82t-117.5 -54.5t-104.5 -13.5t-70 38q-52 78 34 122q19 10 37 14q0 -27 6 -45t16 -26t26 -10t31 0.5t36 8.5q80 23 185 117t185 213q93 138 123 206q13 50 -10 97q-40 85 -90 203.5
t-78 178.5q-10 21 -21.5 34.5t-21 18t-17.5 6t-13 0.5l-5 -1q11 24 37 35t60 6q56 -6 80.5 -6t85.5 7q45 5 64 -39z" />
    <glyph glyph-name="Phi" unicode="&#x3a6;" horiz-adv-x="798" 
d="M295 36q3 -1 7 -2t14 0t18.5 5.5t16 18t10.5 34.5q11 115 13.5 256t-8.5 263q-1 11 -4 21q-21 37 -53 33q-29 -4 -40.5 -26t-16.5 -93q-8 -114 36 -127q18 -5 30 -0.5t18 8t6 0.5q0 -24 -14.5 -45t-38 -30.5t-50 -8.5t-53.5 23t-45 63q-14 30 -19 77t6 100t41 84
q11 11 20 19t21.5 12.5t19 7t24.5 3t26 0t35 -2.5t40 -3q4 0 8 -1h2q57 -7 200 2q14 1 22 1q49 6 84 -0.5t64 -35.5q30 -31 41.5 -84t6.5 -100t-19 -78q-24 -50 -58 -69.5t-63.5 -11t-50.5 32.5t-22 54q0 3 5 -1t18 -8.5t28 0.5q23 6 28 39.5t1 88.5q-3 49 -10.5 72.5
t-17.5 30t-31 8.5q-41 5 -63 -49v-1q-9 -119 -5 -263t16 -254q2 -24 9.5 -39t16 -20.5t17 -7t14.5 -0.5l6 1q-11 -26 -30.5 -35.5t-52.5 -4.5q-54 8 -78 7.5t-83 -6.5q-45 -5 -63 42z" />
    <glyph glyph-name="Chi" unicode="&#x3a7;" horiz-adv-x="907" 
d="M469 289q-39 -36 -116 -112q-22 -22 -34.5 -40t-16 -33t-2.5 -25t4 -27.5t4 -30.5q1 -15 -9.5 -29t-32 -19.5t-55.5 13.5q-24 13 -34 31t-13.5 38.5t-8.5 28.5q-7 11 -37 26t-46 37q-27 33 -17.5 64t53.5 37q22 4 50.5 -2.5t53 -5t50.5 21.5q53 40 121 97q-72 56 -134 98
q-23 16 -46 19.5t-40.5 -1.5t-34 -9.5t-34.5 0t-36 22.5q-9 9 -8.5 27.5t7.5 37.5t23.5 36t36.5 23q21 6 30 18t10 25.5t3.5 28t17 29.5t44 26t48.5 -5t24 -50q1 -8 2 -40t7 -53t22 -37q60 -60 140 -124q80 70 141 131q20 20 27.5 42t5.5 40t-3.5 35t6 34t29.5 31
q23 15 64.5 -11.5t46.5 -68.5q2 -22 12 -33t23.5 -14.5t27.5 -8t26 -21.5t17 -48.5t-14 -47.5t-53 -14q-8 0 -40 5t-53.5 3t-40.5 -16q-64 -44 -135 -105q39 -28 120 -85q26 -19 45.5 -28t35 -9.5t25.5 2t26.5 9t28.5 9.5q26 6 47.5 -17t4.5 -72q-8 -26 -24 -39t-35.5 -20.5
t-26.5 -13.5q-10 -9 -19 -41t-28 -52q-28 -32 -60 -28.5t-46 45.5q-6 18 -7 40.5t0 37.5t-7 34.5t-27 37.5q-56 51 -136 116z" />
    <glyph glyph-name="Psi" unicode="&#x3a8;" horiz-adv-x="652" 
d="M163 41q2 -1 6 -1.5t14.5 0t18.5 5t16 18t10 34.5q9 93 12 211q-6 -3 -14 -3q-75 -8 -113 -4t-72 34q-28 25 -37.5 70t-4.5 80.5t15 66.5q35 107 78 149q11 10 11 4q-28 -175 16 -255q20 -37 45 -49.5t57 -12.5h2q14 0 16 4.5t2 31.5q0 24 1 42q-2 86 -9 143
q-2 22 -10 38t-17 24t-18 13.5t-15 6.5l-6 1q8 19 21.5 26.5t44.5 3.5q69 -8 197 2q20 2 28 -8t6 -26q-3 0 -7 0.5t-15.5 -1.5t-20.5 -8.5t-17.5 -23.5t-10.5 -43q-7 -70 -6 -180q2 -26 10 -35.5t25 -9.5q54 0 93 81q12 25 18.5 49t6.5 72.5t-11 115.5q0 3 2 3
q13 -2 40.5 -47.5t48.5 -109.5q11 -31 16 -67.5t-4.5 -82t-40.5 -71.5q-11 -9 -20.5 -15.5t-22.5 -10.5t-20 -6.5t-26 -2.5h-26.5t-36 2t-41.5 2q-4 1 -8 1q5 -113 14 -198q7 -67 50 -67q11 0 12 1q-11 -26 -30 -35t-51 -4q-54 7 -77.5 7t-82.5 -6q-44 -5 -62 41zM466 38v0
v0z" />
    <glyph glyph-name="Omega" unicode="&#x3a9;" horiz-adv-x="640" 
d="M209 109q1 13 0 24q-3 29 -24.5 59t-52.5 49q-68 44 -88 78q-54 86 -46 186q8 95 76 162.5t187 78.5q24 5 49 4q138 -2 215.5 -69t86.5 -170q12 -147 -57 -211q-29 -28 -74 -61q-28 -20 -52 -48.5t-27 -55.5q-1 -11 -1 -25v-4q0 -19 26.5 -27.5t55.5 -2t36 24.5
q25 60 -18 87l-5 3q62 11 91 -51q9 -21 14 -52t9.5 -51.5t14.5 -24.5l-22 -23q-36 5 -81.5 7t-82.5 1.5t-78 -0.5h-2q-33 -2 -36 26q-3 22 -0.5 90t8.5 106q4 29 13.5 49t18 28.5t23 20t21.5 19.5q25 27 34 61.5t9 82.5q0 81 -31 136t-87 66q-70 9 -115.5 -36.5
t-54.5 -126.5q-1 -13 -2 -28v-8q0 -95 50 -160q7 -9 20 -20t22.5 -20t19.5 -29.5t14 -48.5q3 -19 4 -48t0.5 -51.5t-1.5 -50.5t-1 -34q0 -8 -7 -13.5t-18.5 -7t-21.5 -1.5t-22 0.5t-15 0.5q-3 -1 -6 0q-49 3 -93.5 2.5t-99.5 -7.5l-23 25q12 4 17 25.5t10.5 55t16.5 55.5
q32 66 97 53q-3 -1 -6.5 -3t-12 -10t-13.5 -18t-4.5 -27t8.5 -38q9 -19 35.5 -28.5t51 -4t26.5 24.5q1 2 1 4z" />
    <glyph glyph-name="alpha" unicode="&#x3b1;" horiz-adv-x="567" 
d="M268 114q-24 2 -38.5 17.5t-14.5 32.5t5 30q12 19 32 29t40 9t39 -5q-25 67 -52 130q-6 17 -11.5 16t-17.5 -26v-1q-15 -35 -56.5 -130.5t-52.5 -122.5q-6 -14 -6 -24.5t3.5 -17t10.5 -11t13 -7t14 -3.5t10 -1h4q-14 -36 -47 -32q-76 9 -119 5q-13 -2 -21 6t-8 20h5.5
t13 1.5t19 5.5t20.5 14t19 25q63 115 138 312v2q4 14 4 26t-1.5 20t-5.5 15t-8 11t-10.5 6.5t-10 4t-9 2t-6 0.5h-2.5q9 22 38 32.5t60 4.5q22 -4 41 -16t31.5 -26t24 -35t17.5 -36t13.5 -36t11.5 -29q25 -59 56.5 -142t49.5 -125q21 -46 49 -40q-15 -36 -62 -29
q-35 5 -50.5 5t-54.5 -4q-29 -4 -41 27q1 0 3 -0.5t8 -1t10.5 0t11 2.5t8.5 6.5t4 11.5t-2 18q-10 30 -18 52q-16 45 -27 58t-39 11q-48 -1 -38 -58z" />
    <glyph glyph-name="beta" unicode="&#x3b2;" horiz-adv-x="518" 
d="M203 141q7 -47 30 -71.5t59 -21.5q19 1 33.5 5t31 13t25.5 27.5t9 46.5q0 40 -11.5 67t-38.5 24q-23 -6 -40 -7q-38 -1 -61.5 17.5t-18.5 54.5q4 25 37 35q24 8 26 -2v-3q-8 -26 3.5 -39t33.5 -13q9 1 20 3q4 1 8 3q21 9 27.5 37.5t2.5 60.5q-3 24 -12 40.5t-24 24.5
t-28 11t-31 5q-37 3 -59.5 -24t-26.5 -76q-1 -2 -1 -3q-2 -97 6 -215zM43 29q1 0 4 -0.5t10 0t12.5 3.5t11 12.5t6.5 23.5q7 78 9 174t-5 179q-3 23 -14.5 37t-21.5 17l-10 3q6 13 15 18t30 3q38 -5 127 0q4 1 8 1q82 6 129 3t84 -27q33 -21 45 -57t6.5 -68t-20.5 -53
q-23 -31 -58 -45q37 -12 69 -49q30 -33 23 -87.5t-49 -88.5q-17 -13 -35 -20t-42.5 -9t-43.5 -1.5t-56 2t-62 2.5h-7q-77 4 -123 -1q-30 -3 -42 28z" />
    <glyph glyph-name="gamma" unicode="&#x3b3;" horiz-adv-x="475" 
d="M7 21q24 -5 43.5 9.5t26.5 63.5q14 86 14 261q-1 33 -4 59q-13 71 -63 59q0 2 0.5 4t3.5 7.5t8 9.5t15.5 6.5t24.5 1.5q36 -5 188 -2l140 7q-10 -27 8 -74q4 -10 13 -19.5t17 -15t13.5 -9.5t5.5 -6q-2 -5 -9.5 -7.5t-14.5 -2.5l-6 -1q-5 1 -12.5 3t-28 13t-36.5 28
q-27 29 -68 36.5t-64 -13.5q-16 -17 -22.5 -86.5t-5.5 -151.5q3 -62 8 -108q1 -9 1 -17q1 0 1 -1q2 -18 8.5 -29.5t14 -15.5t14.5 -5.5t12 -0.5l5 1q-15 -34 -66 -26q-56 8 -98 4q-24 -4 -40 -5q-23 -2 -34.5 4t-12.5 12.5t0 6.5z" />
    <glyph glyph-name="delta" unicode="&#x3b4;" horiz-adv-x="532" 
d="M184 392q1 1 1 3q6 26 3 43t-11.5 26t-18 12.5t-16.5 4.5h-7q9 22 38.5 33t61.5 5q23 -4 42 -16.5t31.5 -26.5t24.5 -35.5t18 -36.5t14 -37t12 -30q23 -56 55 -141t53 -131q3 -7 5.5 -12.5t5 -9.5l5 -8t5 -6.5t4 -4.5t3 -3.5t3 -2.5t2.5 -2v0q-3 -10 -14.5 -17.5
t-31.5 -4.5q-34 6 -69 4q-55 -4 -110 -4q-17 0 -46 1t-67 2t-60 2h-2q-9 0 -40 -0.5t-57 -1.5q-14 0 -22.5 10t-8.5 22q1 0 3 -0.5t7.5 1t11.5 5t14.5 13.5t16.5 25q65 118 141 319zM114 93q-7 -21 -4 -26.5t19 -6.5q191 -15 224 -1q12 6 9 15q-2 6 -4 11q-51 157 -103 277
q-5 13 -8 16t-8 -2t-13 -23q-1 -2 -1 -3q-13 -29 -56 -127.5t-55 -129.5z" />
    <glyph glyph-name="epsilon" unicode="&#x3b5;" horiz-adv-x="457" 
d="M-5 23q23 -5 42.5 9.5t27.5 62.5q13 85 13 270q0 53 -16.5 82.5t-49.5 21.5q0 2 0.5 4t3.5 7.5t8 9.5t15 6.5t24 0.5q36 -4 185 -2l139 7q-11 -26 8 -73q4 -10 12.5 -19t16.5 -14.5t13.5 -9.5t4.5 -6q-1 -5 -8.5 -7.5t-13.5 -2.5h-7q-5 0 -12.5 2t-27.5 13t-36 28
q-26 28 -66.5 35.5t-62.5 -13.5q-27 -26 -25.5 -74.5t30.5 -74.5q20 -18 48 -23.5t45.5 7.5t8.5 43q-1 7 7 8q22 3 45 -14q12 -10 14 -23q6 -36 -19 -55t-65 -17q-22 0 -51 8t-47 15l-18 7q-7 -88 10 -138q6 -19 23 -32.5t37.5 -18t43 4t37.5 30.5q29 42 49 61.5t36 13.5
q-20 -34 -24 -84l-8 -82q-79 5 -159 6q-136 1 -185 -2q-45 -2 -46 22z" />
    <glyph glyph-name="zeta" unicode="&#x3b6;" horiz-adv-x="447" 
d="M283 -1q-19 0 -99 1.5t-110 1.5q-14 0 -27 -1q-14 -1 -22.5 13t0.5 23q30 5 54 36q138 237 171 330q6 17 9 29q-11 1 -31.5 2.5t-29.5 1.5q-4 0 -18 1t-19.5 0.5t-17 -1t-17.5 -3t-13.5 -6.5t-12.5 -11.5t-8 -17.5q-11 -31 -5 -49.5t13 -26.5t9 -8q-42 -10 -62 48
q-7 19 -10.5 48t-6.5 48t-10 22l15 23q19 -4 36 -5.5t28 -1.5h31h32h5q82 1 131 2h2q3 0 38 1h18q16 1 34 3q13 1 23 -9.5t10 -23.5q-3 -1 -8.5 -4.5t-20 -20t-27.5 -39.5q-27 -50 -58 -112.5t-66.5 -137t-44.5 -92.5h30q5 0 26 -1t32 -0.5t27.5 3t27 9t16.5 17.5
q25 50 -14 77l-4 2q44 10 65 -44q7 -18 10.5 -45.5t7 -45.5t10.5 -21l-16 -21q-19 4 -37.5 5.5t-29.5 1.5t-32 -0.5t-34 -0.5z" />
    <glyph glyph-name="eta" unicode="&#x3b7;" horiz-adv-x="507" 
d="M6 25q1 0 4 -0.5t10 0t13 3.5t11 12.5t7 23.5q7 78 9 174.5t-6 180.5q-1 15 -6.5 26t-11.5 16.5t-13 9t-10 4.5t-4 1q5 13 14.5 18.5t30.5 2.5q55 -7 109 0q26 3 37.5 -2t13.5 -20q-2 0 -5 0.5t-10.5 -1t-14 -6t-12 -16.5t-7.5 -30q-5 -54 -4 -142q2 -22 30 -29.5t51 7
t14 43.5q-2 7 7 8q23 4 46 -15q11 -10 13 -22q6 -37 -19 -55.5t-65 -17.5q-31 1 -75 16q3 -84 10 -146q4 -48 36 -47l7 1q-8 -18 -21 -24t-36 -3q-37 6 -53 6.5t-57 -3.5q-32 -4 -43 26zM283 24q2 -1 4.5 -1.5t9.5 0t13 4t11 12.5t7 24q7 79 9 176t-5 182q-3 23 -14.5 37.5
t-21.5 17.5l-10 2q5 14 14.5 19t30.5 2q56 -7 109 0q26 3 37.5 -2t13.5 -20q-2 0 -4.5 0.5t-10.5 -1t-14 -6.5t-12 -16.5t-8 -29.5q-6 -82 -3 -181t11 -176q1 -16 6.5 -26.5t11 -14.5t12 -5t9 -0.5t4.5 1.5q-8 -18 -21 -24.5t-36 -2.5q-37 5 -53 5.5t-57 -3.5q-32 -3 -43 27
z" />
    <glyph glyph-name="theta" unicode="&#x3b8;" horiz-adv-x="489" 
d="M289 -19q-29 -8 -58 -7q-98 3 -160 72t-68 165q-2 44 6 87t27.5 83t56 70.5t85.5 43.5q32 11 64 10q99 -2 162 -70t69 -164q4 -45 -4.5 -89.5t-29 -85.5t-59 -71.5t-91.5 -43.5zM249 160q-21 2 -35.5 11.5t-19.5 22.5t-4.5 26t6.5 22q14 23 42.5 34t55.5 10.5t47 -9.5
q12 -5 21 -16q-2 62 -23.5 109t-58.5 67q-23 9 -50 8q-49 -3 -82 -67t-32 -147q1 -75 28 -128.5t73 -67.5q10 -2 22 -2q47 1 77.5 46t41.5 114q0 16 -13.5 25t-27.5 11t-28 1q-18 0 -28.5 -8t-13 -17t-2 -21t1.5 -16.5t2 -7.5z" />
    <glyph glyph-name="iota" unicode="&#x3b9;" horiz-adv-x="226" 
d="M3 29q1 0 4 -0.5t10 0t12.5 3.5t11 12.5t6.5 23.5q8 78 10 174t-6 179q-2 14 -7.5 25.5t-11.5 17t-12.5 9t-9.5 4.5t-4 1q5 13 14.5 18t30.5 3q55 -7 108 -1q26 3 37.5 -2t13.5 -20q-2 0 -5 0.5t-10.5 -1t-14 -6t-12 -16t-7.5 -29.5q-6 -80 -3 -178t11 -173q2 -26 13 -37
t20 -10l9 2q-7 -18 -20 -24.5t-36 -2.5q-37 5 -55 4.5t-58 -4.5q-15 -2 -24 4.5t-15 23.5z" />
    <glyph glyph-name="kappa" unicode="&#x3ba;" horiz-adv-x="1109" 
d="M311 417q15 20 10 32.5t-19 18.5l-14 7q5 13 14.5 18t30.5 3q49 -6 130 2q14 1 21.5 -6t7.5 -19q-5 -1 -14 -3.5t-33.5 -15.5t-44.5 -33q-46 -45 -104 -96t-80 -72q14 -41 56 -60q37 -17 86 -57.5t84 -76t103 -107.5t102 -106q87 -89 216 -120q107 -26 157 7q38 26 14 80
q37 -4 53 -28q7 -13 7.5 -29t-13 -35t-39.5 -33q-54 -29 -126.5 -22.5t-150 37.5t-149.5 82q-76 53 -149.5 113.5t-152 142.5t-120.5 153q-16 28 -38 51q3 -97 11 -172q2 -25 13 -36.5t20 -9.5l9 1q-7 -17 -20 -23.5t-36 -3.5q-37 5 -53 5t-56 -4q-31 -4 -43 28
q2 0 4.5 -0.5t9.5 0t12.5 3.5t11 12.5t6.5 23.5q8 78 10 174t-6 179q-1 14 -6.5 25.5t-11.5 17t-13 9t-10 4t-4 0.5q5 14 14.5 19t30.5 2q49 -6 130 2q13 2 21 -5t8 -19q-2 0 -5 0.5t-10.5 -1t-14 -6t-12 -16t-7.5 -29.5q-5 -53 -4 -139q6 5 32 24.5t43 33t41 34.5t40 39z
" />
    <glyph glyph-name="lambda" unicode="&#x3bb;" horiz-adv-x="567" 
d="M345 24q1 0 3 -0.5t8 -1t10.5 0t11 2.5t8.5 6.5t4 11.5t-2 18q-56 173 -109 296q-6 17 -11.5 16t-17.5 -26v-1q-15 -35 -56.5 -130.5t-52.5 -122.5q-6 -14 -6 -24.5t3.5 -17t10.5 -11t13 -7t14 -3.5t10 -1h4q-14 -36 -47 -32q-76 9 -119 5q-13 -2 -21 6t-8 20h5.5t13 1.5
t19 5.5t20.5 14t19 25q63 115 138 312v2q4 14 4 26t-1.5 20t-5.5 15t-8 11t-10.5 6.5t-10 4t-9 2t-6 0.5h-2.5q9 22 38 32.5t60 4.5q22 -4 41 -16t31.5 -26t24 -35t17.5 -36t13.5 -36t11.5 -29q25 -59 56.5 -142t49.5 -125q21 -46 49 -40q-15 -36 -62 -29q-35 5 -50.5 5
t-54.5 -4q-29 -4 -41 27z" />
    <glyph glyph-name="mu" unicode="&#x3bc;" horiz-adv-x="640" 
d="M438 25q0 1 5.5 0t14.5 1.5t17.5 6.5t14.5 14.5t7 24.5q1 69 -3 305q-2 -6 -10.5 -26.5t-14.5 -33.5q-28 -67 -65 -140t-43 -92q-3 -8 -16.5 -11t-25.5 -2l-12 1q-8 0 -13 5q-8 3 -10 9q-6 19 -42.5 92t-63.5 139q-3 8 -12.5 30.5t-13.5 31.5q-1 -125 1 -306
q0 -15 6.5 -25.5t14.5 -14.5t17 -6.5t14.5 -1.5t6.5 0q-7 -18 -18.5 -24.5t-31.5 -2.5q-33 5 -47 5.5t-51 -3.5q-31 -3 -40 25q0 1 5.5 0t14.5 1.5t17.5 6.5t14.5 14t6 25q1 40 -3 354q-11 52 -50 53q4 13 12.5 18t27.5 3q28 -4 96 -1q17 1 32 -21q19 -24 38.5 -68
t48.5 -123t39 -106q11 23 36.5 81.5t39.5 89t32 68t31 57.5q4 7 8 12h1q10 11 35 10q7 -1 19.5 -1.5t18 -1t15 0t21.5 2.5q22 3 32.5 -2t11.5 -21q-2 1 -6 2.5t-13.5 1t-17.5 -5t-14 -19.5t-7 -38q-1 -124 1 -345q1 -24 15.5 -35.5t29.5 -12.5q13 -1 14 0q-7 -18 -18.5 -24
t-31.5 -3q-33 6 -47 6.5t-50 -3.5q-32 -4 -41 24zM626 25v0v0z" />
    <glyph glyph-name="nu" unicode="&#x3bd;" horiz-adv-x="533" 
d="M24 26q0 1 5.5 0t14.5 1.5t17.5 6.5t14.5 14t6 25q1 40 -3 354q-11 52 -50 53q4 13 12.5 18t27.5 3q49 -7 96 -1q8 1 14 1q19 4 26 -1q16 -9 35.5 -56.5t48 -120.5t55.5 -122q13 -23 27 -50q1 53 -1.5 159.5t-2.5 108.5q0 19 -6 31.5t-14 17.5t-15.5 7.5t-13.5 1.5h-6
q5 13 13.5 18.5t26.5 2.5q49 -7 97 0q50 7 53 -20q-3 1 -6.5 2t-12.5 0t-16 -6.5t-13 -20.5t-6 -39q-2 -200 2 -346q1 -26 19 -34q20 -2 46 13q4 2 3 -1q0 -3 -4 -12q-11 -29 -32 -44.5t-44.5 -16t-44.5 6t-35 17.5q-24 17 -56.5 85.5t-73 154t-76.5 131.5q-1 -124 1 -294
q0 -15 6.5 -25.5t14.5 -14.5t17 -6.5t14.5 -1.5t6.5 0q-7 -18 -18.5 -24.5t-31.5 -2.5q-33 5 -47 5.5t-51 -3.5q-31 -3 -40 25z" />
    <glyph glyph-name="xi" unicode="&#x3be;" horiz-adv-x="468" 
d="M345 411q-114 8 -214 2q-16 -1 -27 -8.5t-15 -15t-13.5 -13t-23.5 -3.5q-13 2 -19.5 24t4.5 39q8 10 6 18.5t-7.5 14.5t-6 17.5t9.5 26.5q9 13 20 12.5t23 -11.5q25 -24 54 -27q85 -10 199 -4q25 1 38.5 6t16.5 8t15 18q5 6 12.5 8t17.5 -4t15 -22q4 -15 2.5 -22t-7 -16
t-5.5 -14q-1 -6 5 -20.5t5 -27.5q-2 -20 -14.5 -28t-30.5 3q-8 6 -17 16t-18 16t-25 7zM314 228q-80 6 -160 1q-20 -1 -36 -13.5t-34 -10.5q-10 2 -15 19.5t4 31.5q7 10 3 19t-8.5 16.5t6.5 26.5q13 21 34.5 1t41.5 -23q84 -10 162 -6q10 1 17.5 2.5t12 2.5t9 4.5t6 5t5.5 7
t6 8.5q3 4 9.5 6t14.5 -3t12 -18q3 -12 1.5 -17.5t-5.5 -13t-5 -11.5q0 -4 4.5 -16t3.5 -22q-1 -16 -11 -22.5t-24 2.5l-12 8l-12 8t-11 4.5t-19 2.5zM348 13q-110 8 -226 1q-16 -1 -25.5 -8t-12.5 -14t-11 -12t-23 -3q-13 2 -19 24t5 39q7 10 5.5 19t-7 14.5t-6 17
t9.5 27.5q8 12 19.5 12t22.5 -11q3 -3 9.5 -10t9.5 -9.5t10 -5.5t15 -4q94 -12 213 -5q15 1 25 2.5t17 5.5t9 5.5t8 10t8 10.5q4 6 12 8t17.5 -4t15.5 -22q4 -15 2.5 -22t-7 -16t-6.5 -14q-1 -6 5 -20.5t5 -27.5q-1 -20 -13.5 -27.5t-30.5 3.5q-9 5 -16.5 14.5t-15.5 15
t-24 6.5z" />
    <glyph glyph-name="omicron" unicode="&#x3bf;" horiz-adv-x="486" 
d="M288 0q-28 -8 -57 -7q-97 3 -158.5 71.5t-67.5 163.5q-2 44 6 86t27.5 81.5t55.5 70t85 44.5q31 10 63 9q97 -2 159.5 -69t69.5 -162q3 -46 -5 -89.5t-28.5 -84t-59 -71t-90.5 -43.5zM279 451q-22 10 -49 8q-49 -2 -81.5 -65.5t-31.5 -146.5q1 -73 27.5 -126.5
t72.5 -66.5q10 -2 21 -2q39 0 67.5 33t41.5 81t13 104q0 64 -21.5 112.5t-59.5 68.5z" />
    <glyph glyph-name="pi" unicode="&#x3c0;" horiz-adv-x="511" 
d="M0 27q2 0 4.5 -0.5t9.5 0t12 3.5t10.5 12.5t6.5 23.5q7 79 9 176t-5 180q-2 15 -7.5 26.5t-11 17t-12 9t-9.5 4.5t-4 1q5 13 14 18.5t29 2.5q25 -3 91 -3q4 1 8 1q80 0 215 -1h5q53 -1 81 2q25 4 36 -1t13 -21q-2 1 -5 1t-10 -1.5t-13 -6t-12 -16t-7 -29.5
q-6 -81 -3 -180t10 -175q2 -16 6.5 -26.5t10.5 -14.5t11.5 -5t8.5 -1q3 1 4 2q-7 -18 -19.5 -24.5t-34.5 -3.5q-35 5 -52.5 5t-56.5 -4q-14 -2 -22.5 4.5t-14.5 23.5q1 0 3.5 -0.5t9.5 0t12.5 3.5t10.5 12.5t6 23.5q8 79 9.5 176t-5.5 180q0 4 -1 8q-26 -1 -92 0.5t-97 0.5
v-5q-6 -81 -3 -180t10 -175q5 -48 35 -47q5 1 6 2q-7 -18 -19.5 -24.5t-34.5 -3.5q-35 5 -52.5 5t-56.5 -4q-14 -2 -22 4.5t-15 23.5zM200 26v0v0zM496 26v0v0z" />
    <glyph glyph-name="rho" unicode="&#x3c1;" horiz-adv-x="468" 
d="M5 31q2 0 4.5 -0.5t9.5 0t13 3.5t11 12.5t7 23.5q7 78 9 174t-5 179q-2 14 -7.5 25.5t-11.5 17t-12.5 9t-10 4t-4.5 0.5q5 14 14.5 19t30.5 2q38 -4 136 2h16q73 6 116.5 2.5t79.5 -26.5q28 -18 41 -48t12 -58t-11 -52q-9 -25 -32 -50q-47 -53 -148 -44q-40 4 -62 20.5
t-17 51.5q4 25 36 35q25 8 26 -3q1 -1 0 -2q-7 -26 4.5 -39t32.5 -13q10 0 20 3q5 1 9 3q20 9 26.5 37t3.5 61q-3 24 -12 40t-24 24.5t-28 11.5t-31 5q-37 3 -60 -24t-27 -77v-3q-3 -142 11 -283q2 -16 7 -26.5t10.5 -14t12 -4.5t9 -0.5t4.5 0.5q-8 -17 -21 -23.5t-35 -3.5
q-37 5 -53.5 5t-56.5 -4q-31 -4 -43 28z" />
    <glyph glyph-name="sigma1" unicode="&#x3c2;" horiz-adv-x="444" 
d="M170 429q25 -31 46.5 -66t37 -64.5t16.5 -32.5q1 0 1 -1q2 -9 -34 -81.5t-68 -113.5q-4 -5 -7 -9q30 -1 65 -1q5 0 25.5 -1t31.5 -0.5t27.5 2.5t27 9t16.5 18q8 16 9 30t-2.5 22t-10 15t-9.5 8.5l-5 2.5q44 11 65 -44q7 -17 10.5 -44.5t6.5 -45.5t11 -21l-16 -21
q-19 4 -37 5.5t-29.5 1.5t-32 -0.5t-33.5 -0.5q-19 0 -99 1.5t-110 1.5q-14 0 -26 -1q-14 -1 -22.5 13t0.5 23q4 1 11.5 3.5t24.5 15.5t28 34q17 32 31 54.5t21 32t25.5 32t29.5 36.5q-10 13 -16.5 22t-13.5 19l-10.5 15t-9.5 15t-8.5 14t-9.5 16.5t-10 18t-12.5 23.5
t-15.5 28q-10 20 -27 33t-25.5 16t-10.5 3q-9 9 -0.5 22.5t21.5 12.5q14 -1 30 -1h59h10h12h10h109q13 0 33.5 -0.5t32 -0.5t29.5 1.5t37 5.5l16 -21q-8 -3 -11 -20.5t-6.5 -45t-10.5 -45.5q-21 -54 -64 -44q1 1 4 2.5t9.5 8.5t10 15t2.5 22t-9 30q-5 11 -16 18t-27.5 9
t-27.5 2.5t-31.5 -0.5t-25.5 -1q-33 0 -58 1q2 -3 5 -7z" />
    <glyph glyph-name="sigma" unicode="&#x3c3;" horiz-adv-x="444" 
d="M170 429q25 -31 46.5 -66t37 -64.5t16.5 -32.5q1 0 1 -1q2 -9 -34 -81.5t-68 -113.5q-4 -5 -7 -9q30 -1 65 -1q5 0 25.5 -1t31.5 -0.5t27.5 2.5t27 9t16.5 18q8 16 9 30t-2.5 22t-10 15t-9.5 8.5l-5 2.5q44 11 65 -44q7 -17 10.5 -44.5t6.5 -45.5t11 -21l-16 -21
q-19 4 -37 5.5t-29.5 1.5t-32 -0.5t-33.5 -0.5q-19 0 -99 1.5t-110 1.5q-14 0 -26 -1q-14 -1 -22.5 13t0.5 23q4 1 11.5 3.5t24.5 15.5t28 34q17 32 31 54.5t21 32t25.5 32t29.5 36.5q-10 13 -16.5 22t-13.5 19l-10.5 15t-9.5 15t-8.5 14t-9.5 16.5t-10 18t-12.5 23.5
t-15.5 28q-10 20 -27 33t-25.5 16t-10.5 3q-9 9 -0.5 22.5t21.5 12.5q14 -1 30 -1h59h10h12h10h109q13 0 33.5 -0.5t32 -0.5t29.5 1.5t37 5.5l16 -21q-8 -3 -11 -20.5t-6.5 -45t-10.5 -45.5q-21 -54 -64 -44q1 1 4 2.5t9.5 8.5t10 15t2.5 22t-9 30q-5 11 -16 18t-27.5 9
t-27.5 2.5t-31.5 -0.5t-25.5 -1q-33 0 -58 1q2 -3 5 -7z" />
    <glyph glyph-name="tau" unicode="&#x3c4;" horiz-adv-x="460" 
d="M121 27q1 0 4 -0.5t10 0t12.5 3.5t11 12.5t6.5 23.5q8 78 9.5 174t-5.5 179v1q-5 16 -23.5 20.5t-39 -7t-28.5 -37.5q-11 -31 -5 -49.5t12.5 -26t8.5 -7.5q-41 -11 -61 47q-7 19 -10.5 48.5t-6.5 48t-10 22.5l15 22q18 -4 35.5 -5.5t28.5 -1.5t30.5 0.5t32.5 0.5h4
q7 0 56.5 1t68.5 0q18 0 25 -1q11 0 31.5 -0.5t31 -0.5t28.5 1.5t37 5.5l16 -22q-8 -4 -11 -22.5t-6.5 -48t-10.5 -48.5q-21 -58 -65 -47q2 1 4.5 2.5t8 8.5t8.5 15.5t3 24t-6 32.5q-9 26 -30 37.5t-40 7.5t-22 -20q-6 -81 -3 -178.5t10 -171.5q2 -17 7 -27.5t11 -14
t11.5 -4.5t9.5 -1q3 1 4 2q-7 -18 -20 -24.5t-36 -2.5q-37 5 -53 5.5t-57 -3.5q-31 -3 -42 26zM329 26v0v0z" />
    <glyph glyph-name="upsilon" unicode="&#x3c5;" horiz-adv-x="515" 
d="M444 102q1 -27 -7 -45.5t-32 -37.5q-31 -25 -85.5 -34.5t-102.5 -6t-80 14.5q-48 17 -68.5 42t-17.5 52q2 60 2 162.5t-7 166.5q-3 24 -14.5 38.5t-21.5 17.5l-10 3q5 14 14.5 19.5t30.5 2.5q56 -7 111 -1q26 4 37.5 -1.5t13.5 -21.5q-2 1 -5 1t-10.5 -1.5t-14 -6
t-12.5 -17t-7 -30.5q-11 -113 2 -304q0 -1 1 -4q4 -58 93 -52q15 1 27 3t20.5 6t15 7t11 9.5t7 9.5t4 11.5t2.5 10.5t1.5 11t0.5 10q8 192 -2 281q-3 24 -14.5 39t-21.5 18l-10 2q5 14 14.5 19.5t30.5 2.5q56 -7 110 0q26 3 37.5 -2t13.5 -21q-2 0 -5 0.5t-10.5 -1t-14 -6.5
t-12.5 -17t-7 -30q-5 -57 -6 -177.5t-2 -142.5z" />
    <glyph glyph-name="phi" unicode="&#x3c6;" horiz-adv-x="473" 
d="M124 28q1 -1 4 -1.5t10 0t12.5 4t11 12.5t6.5 24q8 78 10 174.5t-6 180.5q-1 8 -3 15q-14 25 -36 22q-20 -3 -28 -18t-11 -64q-6 -78 24 -87q13 -3 21 0t12.5 5.5t4.5 0.5q0 -17 -10 -31t-26 -20.5t-34 -6t-37 15.5t-31 43q-10 21 -13.5 53t4.5 68.5t28 57.5
q23 25 49.5 28t78.5 -3q3 0 5 -1h2q39 -5 137 2h14q34 5 58 0.5t44 -25.5q21 -21 28.5 -57.5t4 -68.5t-12.5 -53q-16 -34 -39.5 -47.5t-43.5 -7.5t-34.5 22.5t-15.5 36.5q0 2 3.5 -0.5t12.5 -5.5t19 0q26 7 20 88q-4 48 -12 61t-29 15q-28 4 -43 -34v-1q-6 -81 -3 -179.5
t11 -174.5q1 -16 6 -26.5t11 -14.5t12 -5t10 0l4 1q-8 -18 -21 -24.5t-36 -2.5q-37 5 -53.5 5t-56.5 -5q-31 -3 -43 29z" />
    <glyph glyph-name="chi" unicode="&#x3c7;" horiz-adv-x="519" 
d="M328 406q21 34 13 47.5t-28 13.5h-20q6 14 22 25t36 8q44 -6 104 0q13 1 21 -9t8 -22q-4 -1 -11 -3t-26 -14.5t-34 -33.5q-40 -53 -87 -114q-12 -17 -27 -39q18 -27 27 -41q49 -63 120 -146q19 -21 33.5 -34t19.5 -16l6 -3q-16 -36 -63 -28q-32 5 -51 5t-55 -4
q-29 -3 -41 28q2 0 4.5 0.5t8 3.5t8 8t1 14.5t-9.5 22.5q-9 14 -18 29l-4 6q-1 1 -1 2q-20 29 -47 68q-45 -63 -77 -105q-12 -16 -12.5 -26.5t6.5 -14t16 -4.5t16 0l8 1q-15 -36 -48 -31q-36 6 -109 2q-14 -1 -23 6.5t-9 19.5q1 0 2.5 -0.5t7 0.5t11.5 4.5t16.5 12
t21.5 21.5q36 42 83 100q13 18 52 68q-38 56 -63 93q-27 37 -68 94q-15 20 -30 33t-21.5 16.5t-7.5 3.5q16 35 63 28q32 -5 51 -5t55 4q29 3 41 -28q-2 0 -5.5 -1t-10.5 -5t-10.5 -9.5t-3 -15.5t7.5 -23q27 -44 66 -101q43 57 65 88z" />
    <glyph glyph-name="psi" unicode="&#x3c8;" horiz-adv-x="445" 
d="M103 26q2 0 4.5 -0.5t9.5 0t13 3.5t11 12.5t7 23.5q6 64 9 146q-5 -2 -10 -2q-52 -5 -78 -2.5t-50 23.5q-20 17 -26.5 48t-3 55.5t10.5 45.5q26 79 56 105q5 4 6 2q-20 -122 11 -177q23 -43 70 -43h1q10 0 11.5 3.5t1.5 21.5q0 17 1 29q-2 60 -6 99q-3 24 -14.5 38
t-21.5 17l-10 2q5 14 14.5 19t30.5 2q48 -6 137 2q13 1 19 -6t4 -18q-2 0 -5 0.5t-10.5 -1t-14 -6t-12 -16.5t-7.5 -29q-4 -49 -4 -125q1 -18 6.5 -24.5t17.5 -6.5q37 0 65 56q8 17 12.5 33.5t4.5 50.5t-8 80l2 2q11 -2 33 -43q16 -28 28 -65q8 -22 11 -47t-3.5 -56.5
t-27.5 -49.5q-25 -21 -52.5 -24t-81.5 2q-2 1 -5 1q4 -79 10 -137q1 -16 6.5 -27t11 -14.5t12 -4.5t9 -0.5t4.5 0.5q-8 -17 -21 -23.5t-36 -3.5q-37 5 -53 5t-57 -4q-30 -4 -43 28z" />
    <glyph glyph-name="omega" unicode="&#x3c9;" horiz-adv-x="469" 
d="M166 75v16q-3 21 -18 41.5t-36 33.5q-47 31 -61 54q-37 60 -32 129q6 66 53 113t130 55q17 3 33 2q97 -1 150.5 -47.5t59.5 -118.5q8 -101 -39 -146q-20 -19 -52 -42q-51 -37 -55 -73q-1 -7 -1 -16q1 -2 1 -4q0 -13 18 -18.5t38.5 -1t25.5 16.5q5 14 5.5 25t-2.5 17.5
t-8.5 11.5t-7.5 6.5t-4 1.5q43 8 63 -35q7 -14 10.5 -36t6.5 -36t10 -16l-15 -17q-25 4 -57 5.5t-57.5 1t-53.5 -0.5h-2q-23 -1 -24 18q-2 15 -0.5 62t5.5 74q4 26 11.5 39.5t23 26t18.5 15.5q30 32 30 100q0 56 -21.5 94.5t-60.5 45.5q-49 6 -80.5 -25.5t-37.5 -87.5
q-1 -9 -1 -20v-5q0 -66 34 -111q5 -6 18.5 -16.5t22 -25t12.5 -40.5q2 -13 3 -33t0.5 -35.5t-1.5 -35t-1 -23.5q0 -6 -4.5 -9.5t-12.5 -4.5t-15 -1.5t-15.5 0t-10.5 0.5h-4q-83 3 -134 -3l-15 17q7 3 10.5 18t7.5 38t12 38q22 46 67 37q-2 -1 -4.5 -2.5t-8.5 -7t-9 -12
t-3 -18.5t6 -26q9 -21 42 -24t36 18q0 2 1 3z" />
    <glyph glyph-name="iotadieresis" unicode="&#x3ca;" horiz-adv-x="445" 
d="M186 516q27 9 54 9q84 -2 136.5 -62.5t53.5 -142.5q3 -118 -60 -182q-24 -30 -61 -48.5t-78 -16.5q-84 2 -136.5 60.5t-57.5 140.5q-3 52 9.5 98.5t48.5 87.5t91 56zM271 125q6 10 20 17q29 13 40 54t11 115q0 54 -18.5 96t-51.5 59q-19 8 -42 7q-42 -2 -70 -56.5
t-27 -125.5q1 -82 37 -131t94 -37q4 1 7 2z" />
    <glyph glyph-name="omegatonos" unicode="&#x3ce;" horiz-adv-x="500" 
d="M253 250q1 16 -21 47q-20 -27 -22 -44v-2q12 -4 40 -1h3zM128 324q1 -2 2 -5q3 -15 16 -21.5t29.5 -3t25.5 14.5q10 11 6 27q-2 14 -15 21t-29.5 4.5t-26.5 -12.5q-10 -9 -8 -22v-3zM253 335q0 -3 2 -7q8 -25 29 -32q11 -3 24.5 -2t17.5 5q16 18 9 34.5t-29.5 25
t-38.5 0.5q-12 -7 -14 -24zM330 58q15 -5 29 -9q17 -5 28 -7.5t19.5 -1.5t11.5 2t12 6t13 7q12 6 27 -1.5t16 -32.5q0 -13 -5.5 -21.5t-13.5 -14.5t-11 -9q-3 -6 -1.5 -21.5t-3.5 -28.5q-9 -18 -25 -20.5t-32 15.5q-7 8 -12 20t-12 20t-24 16q-40 17 -104 41
q-63 -30 -108 -55q-17 -9 -24 -20t-7 -19t-6 -16.5t-22 -13.5q-14 -5 -30.5 12t-11.5 38q3 13 -2.5 20t-14 9t-13.5 12.5t-2 28.5q2 16 14.5 21.5t29.5 1.5q4 -1 13.5 -4t14 -4t13 -0.5t17.5 4.5q22 8 47 18q-26 8 -49 15q-18 5 -30.5 2.5t-18 -8t-16.5 -7t-25 6.5
q-13 5 -12.5 29.5t18.5 35.5q11 7 12.5 15.5t-2.5 16t-1 18.5t19 22q14 8 26 3.5t21 -19.5q2 -3 6.5 -12t7 -12.5t9 -9.5t15.5 -10q48 -24 109 -47q45 21 87 45q16 8 25.5 14t14.5 13t7 10t4.5 13l3.5 14q2 7 9 13t20 5.5t26 -12.5q9 -9 11 -18.5t0.5 -19.5t-0.5 -14
q1 -6 14 -16.5t17 -22.5q7 -19 -2.5 -32.5t-32.5 -11.5q-12 1 -25.5 5.5t-20 5t-28.5 -5.5q-16 -7 -39 -17zM232 550q99 -3 141 -71t0 -155q0 -1 -1 -2q-2 -7 0 -22q1 -6 2 -9q2 -14 -3 -26q-7 -17 -24 -22q-8 -3 -25 -3q-16 0 -18 -3q-7 -6 -3 -18q3 -10 3 -15
q0 -13 -9 -21q-13 -12 -59 -13q-19 -1 -29 0q-18 3 -31 11t-16 22q-1 7 2 19v2q1 6 0 7q-3 4 -17 5h-2q-12 1 -18 3q-13 3 -20 12q-6 7 -9 21q-1 7 -3 22v9q-2 15 -5 23v1l-2 4q-1 3 -2 5q-28 78 5 137q37 66 135 77h3q3 1 5 0z" />
    <glyph glyph-name="quoteright" unicode="&#x2019;" horiz-adv-x="410" 
d="M236 519l71 95h88q-38 -56 -79 -84q-18 -13 -38.5 -15.5t-31.5 1.5z" />
    <glyph glyph-name="quotedblleft" unicode="&#x201c;" horiz-adv-x="376" 
d="M181 582l-70 -93h-87q38 55 78 83q18 12 38 14.5t31 -1.5zM361 584l-70 -93h-87q37 56 78 83q18 12 38 14.5t31 -0.5z" />
    <glyph glyph-name="quotedblright" unicode="&#x201d;" horiz-adv-x="410" 
d="M236 519l71 95h88q-38 -56 -79 -84q-18 -13 -38.5 -15.5t-31.5 1.5zM53 517l71 94h88q-38 -56 -79 -84q-18 -12 -38 -14.5t-31 0.5z" />
    <glyph glyph-name="uni3000" unicode="&#x3000;" horiz-adv-x="1000" 
 />
    <glyph glyph-name="uniF8FE" unicode="&#xf8fe;" horiz-adv-x="300" 
 />
    </font>
</defs>
</svg>
